External Links:

White.Collar.S05E05.Master.Plan.1080p.WEB-DL.DD5.1.H.264-NTb   PROPER added

General
Complete name : White.Collar.S05E01.1080p.WEB-DL.DD5.1.H.264.HKD.mkv
Format : Matroska
Format version : Version 4 / Version 2
File size : 1.66 GiB
Duration : 43mn 14s
Overall bit rate : 5 502 Kbps
Movie name : ripped by CrazyHDSource.com

Video
ID : 1
Format : AVC
Format/Info : Advanced Video Codec
Format profile : High@L4.0
Format settings, CABAC : Yes
Format settings, ReFrames : 4 frames
Codec ID : V_MPEG4/ISO/AVC
Duration : 43mn 14s
Bit rate : 5 009 Kbps
Width : 1 912 pixels
Height : 1 072 pixels
Display aspect ratio : 16:9
Frame rate mode : Constant
Frame rate : 23.976 fps
Color space : YUV
Chroma subsampling : 4:2:0
Bit depth : 8 bits
Scan type : Progressive
Bits/(Pixel*Frame) : 0.102
Stream size : 1.51 GiB (91%)
Title : ripped by CrazyHDSource.com
Language : English
Default : Yes
Forced : No
Color primaries : BT.709
Transfer characteristics : BT.709
Matrix coefficients : BT.709

Audio
ID : 2
Format : AC-3
Format/Info : Audio Coding 3
Mode extension : CM (complete main)
Format settings, Endianness : Big
Codec ID : A_AC3
Duration : 43mn 14s
Bit rate mode : Constant
Bit rate : 384 Kbps
Channel(s) : 6 channels
Channel positions : Front: L C R, Side: L R, LFE
Sampling rate : 48.0 KHz
Bit depth : 16 bits
Compression mode : Lossy
Stream size : 119 MiB (7%)
Language : English
Default : Yes
Forced : No

Text
ID : 3
Format : UTF-8
Codec ID : S_TEXT/UTF8
Codec ID/Info : UTF-8 Plain Text
Language : English
Default : No
Forced : No

Screenshot:

Sign up via clicking banner and a file link to creat a premium account.Then Get the access to protected links.

ExtMatrix Download Links

White.Collar.S05E01.At.What.Price.1080p.WEB-DL.DD5.1.H.264-NTb.mkv
White.Collar.S05E02.Out.of.the.Frying.Pan.1080p.WEB-DL.DD5.1.H.264-NTb.mkv
White.Collar.S05E02.Out.of.the.Frying.Pan.720p.WEB-DL.DD5.1.H.264-NTb.mkv
White.Collar.S05E03.One.Last.Stakeout.1080p.WEB-DL.DD5.1.H.264-NTb.mkv
White.Collar.S05E03.One.Last.Stakeout.720p.WEB-DL.DD5.1.H.264-NTb.mkv
White.Collar.S05E04.Controlling.Interest.1080p.WEB-DL.DD5.1.H.264-NTb.mkv
White.Collar.S05E04.Controlling.Interest.720p.WEB-DL.DD5.1.H.264-NTb.mkv
White.Collar.S05E05.Master.Plan.720p.WEB-DL.DD5.1.H.264-NTb.mkv
White.Collar.S05E06.Ice.Breaker.1080p.WEB-DL.DD5.1.H.264-NTb.mkv
White.Collar.S05E06.Ice.Breaker.720p.WEB-DL.DD5.1.H.264-NTb.mkv
White.Collar.S05E05.Master.Plan.PROPER.1080p.WEB-DL.DD5.1.H.264-NTb.mkv
White.Collar.S05E07.Quantico.Closure.1080p.WEB-DL.DD5.1.H.264-NTb.mkv
White.Collar.S05E08.Digging.Deeper.1080p.WEB-DL.DD5.1.H.264-NTb.mkv
White.Collar.S05E08.Digging.Deeper.720p.WEB-DL.DD5.1.H.264-NTb.mkv
White.Collar.S05E09.No.Good.Deed.1080p.WEB-DL.DD5.1.H.264-NTb.mkv
White.Collar.S05E09.No.Good.Deed.720p.WEB-DL.DD5.1.H.264-NTb.mkv
White.Collar.S05E10.Live.Feed.720p.WEB-DL.DD5.1.H.264-NTb.mkv
White.Collar.S05E10.Live.Feed.1080p.WEB-DL.DD5.1.H.264-NTb.mkv
White.Collar.S05E11.Shot.Through.the.Heart.1080p.WEB-DL.DD5.1.H.264-NTb.mkv
White.Collar.S05E11.Shot.Through.the.Heart.720p.WEB-DL.DD5.1.H.264-NTb.mkv
White.Collar.S05E12.Taking.Stock.1080p.WEB-DL.DD5.1.H.264-NTb.mkv
White.Collar.S05E12.Taking.Stock.720p.WEB-DL.DD5.1.H.264-NTb.mkv