External Links:

General
Unique ID : 226247839933483074760709071502479604868 (0xAA35BFBD0711E2CCA7DAC11FA7C63C84)
Complete name :Whitney.S01E16.48.Hours.720p.WEB-DL.DD5.1.H.264-CtrlHD.mkv
Format : Matroska
Format version : Version 2
File size : 694 MiB
Duration : 21mn 0s
Overall bit rate : 4 614 Kbps
Writing application : mkvmerge v5.2.1 (‘A Far Off Place’) built on Jan 2 2012 23:21:10
Writing library : libebml v1.2.3 + libmatroska v1.3.0

Video
ID : 1
Format : AVC
Format/Info : Advanced Video Codec
Format profile : High@L3.1
Format settings, CABAC : No
Format settings, ReFrames : 2 frames
Codec ID : V_MPEG4/ISO/AVC
Duration : 21mn 0s
Bit rate : 4 139 Kbps
Width : 1 280 pixels
Height : 720 pixels
Display aspect ratio : 16:9
Frame rate mode : Constant
Frame rate : 23.976 fps
Color space : YUV
Chroma subsampling : 4:2:0
Bit depth : 8 bits
Scan type : Progressive
Bits/(Pixel*Frame) : 0.187
Stream size : 622 MiB (90%)
Language : English
Default : Yes
Forced : No
Color primaries : BT.709
Transfer characteristics : BT.709
Matrix coefficients : BT.709

Audio
ID : 2
Format : AC-3
Format/Info : Audio Coding 3
Mode extension : CM (complete main)
Format settings, Endianness : Big
Codec ID : A_AC3
Duration : 21mn 0s
Bit rate mode : Constant
Bit rate : 384 Kbps
Channel(s) : 6 channels
Channel positions : Front: L C R, Side: L R, LFE
Sampling rate : 48.0 KHz
Bit depth : 16 bits
Compression mode : Lossy
Stream size : 57.7 MiB (8%)
Language : English
Default : Yes
Forced : No

File Name Size
Whitney.S01E01.Pilot.720p.WEB DL.DD5.1.AAC2.0.H.264 WHiN.mkv 697.24 MB
Whitney.S01E02.First.Date.720p.WEB DL.DD5.1.AAC2.0.H.264 WHiN.mkv 684.76 MB
Whitney.S01E03.Silent.Treatment.720p.WEB DL.DD5.1.H.264 CtrlHD.mkv 671.99 MB
Whitney.S01E04.A.Decent.Proposal.720p.WEB DL.DD5.1.H.264 CtrlHD.mkv 658.27 MB
Whitney.S01E05.The.Wire.720p.WEB DL.DD5.1.H.264 CtrlHD.mkv 663.58 MB
Whitney.S01E06.Two.Broke Up.Guys.720p.WEB DL.DD5.1.H.264 CtrlHD.mkv 664.13 MB
Whitney.S01E07.Getting.to.Know.You.720p.WEB DL.DD5.1.H.264 CtrlHD.mkv 703.44 MB
Whitney.S01E08.Clarence.720p.WEB DL.DD5.1.H.264 CtrlHD.mkv 655.76 MB
Whitney.S01E09.Up.All.Night.720p.WEB DL.DD5.1.H.264 CtrlHD.mkv 661.93 MB
Whitney.S01E10.Christmas.is.Cummings.720p.WEB DL.DD5.1.H.264 CtrlHD.mkv 673.33 MB
Whitney.S01E11.Private.Parts.720p.WEB DL.DD5.1.H.264 CtrlHD.mkv 675.01 MB
Whitney.S01E12.Faking.It.720p.WEB DL.DD5.1.H.264 CtrlHD.mkv 666.67 MB
Whitney.S01E13.Codependence.Day.720p.WEB DL.DD5.1.H.264 CtrlHD.mkv 691.42 MB
Whitney.S01E14.Mind.Games.720p.WEB DL.DD5.1.H.264 CtrlHD.mkv 669.15 MB
Whitney.S01E15.Lance.720p.WEB DL.DD5.1.H.264 CtrlHD.mkv 651.69 MB
Whitney.S01E16.48.Hours.720p.WEB DL.DD5.1.H.264 CtrlHD.mkv 693.53 MB
Whitney.S01E17.Mad.Women.720p.WEB DL.DD5.1.H.264 CtrlHD.mkv 665.83 MB
Whitney.S01E18.Homeland.Security.720p.WEB DL.DD5.1.H.264 CtrlHD.mkv 691.40 MB
Whitney.S01E19.The.Ex.Box.720p.WEB DL.DD5.1.H.264 CtrlHD.mkv 668.97 MB
Whitney.S01E20.G Word.720p.WEB DL.DD5.1.H.264 CtrlHD.mkv 665.98 MB
Whitney.S01E21.Something.Old.Something.New.720p.WEB DL.DD5.1.H.264 CtrlHD.mkv 669.79 MB
Whitney.S01E22.Something.Black.Something.Blue.720p.WEB DL.DD5.1.H.264 CtrlHD.mkv 674.21 MB
File Name Size
Whitney.S02E01.Bawl.and.Chain.720p.WEB DL.DD5.1.AAC2.0.H.264 BS.mkv 683.76 MB
Whitney.S02E02.Poor.Whitney.720p.WEB DL.DD5.1.AAC2.0.H.264 BS.mkv 657.62 MB
Whitney.S02E03.Sex.Lies.and.Alibis.720p.WEB DL.DD5.1.H.264 BS.mkv 680.64 MB
Whitney.S02E04.Hello.iggles.720p.WEB DL.DD5.1.H.264 BS.mkv 687.29 MB
Whitney.S02E05.Threes.Company.720p.WEB DL.DD5.1.H.264 BS.mkv 671.68 MB
Whitney.S02E06.Two.Broke.Hearts.720p.WEB DL.DD5.1.H.264 BS.mkv 664.83 MB
Whitney.S02E07.Sorry.720p.WEB DL.DD5.1.H.264 BS.mkv 659.64 MB
Whitney.S02E08.Space.Invaders.720p.WEB DL.DD5.1.H.264 BS.mkv 690.65 MB
Whitney.S02E09.Snapped.720p.WEB DL.DD5.1.H.264 BS.mkv 698.29 MB
Whitney.S02E10.Breaking.Dad.720p.WEB DL.DD5.1.H.264 BS.mkv 690.24 MB
Whitney.S02E11.Slow.Ride.720p.WEB DL.DD5.1.H.264 BS.mkv 484.92 MB
Whitney.S02E12.Lost.In.Transition.720p.WEB DL.DD5.1.H.264 BS.mkv 688.46 MB
Whitney.S02E13.Nesting.720p.WEB DL.DD5.1.H.264 BS.mkv 690.27 MB
Whitney.S02E14.Crazy.Stupid.Words.720p.WEB DL.DD5.1.H.264 BS.mkv 669.67 MB
Whitney.S02E15.Alex.Meet.Lily.720p.WEB DL.DD5.1.H.264 BS.mkv 674.74 MB
Whitney.S02E16.Cake.Cake.Cake.720p.WEB DL.DD5.1.H.264 BS.mkv 706.77 MB

Screenshot:

Sign up via clicking banner and a file link to creat a premium account.

ExtMatrix Download Links

Whitney.S01E01.Pilot.720p.WEB-DL.DD5.1.AAC2.0.H.264-WHiN.mkv
Try Contact to get all episodes

Whitney S01 S02 Complete 720p WEB-DL DD5.1 H.264 BS CtrlHD WHiN