Useful link:

IMDB

TVRAGE

TVDB

MediaInfo:
General
Complete name : Young.and.Hungry.2014.S01E01.1080p.WEB-DL.DD5.1.H.264.HKD.mkv
Format : Matroska
Format version : Version 4 / Version 2
File size : 927 MiB
Duration : 23mn 26s
Overall bit rate : 5 530 Kbps
Movie name : ripped by CrazyHDSource.com

Video
ID : 1
Format : AVC
Format/Info : Advanced Video Codec
Format profile : High@L4.0
Format settings, CABAC : Yes
Format settings, ReFrames : 4 frames
Codec ID : V_MPEG4/ISO/AVC
Duration : 23mn 26s
Bit rate : 5 036 Kbps
Width : 1 920 pixels
Height : 1 080 pixels
Display aspect ratio : 16:9
Frame rate mode : Constant
Frame rate : 23.976 fps
Color space : YUV
Chroma subsampling : 4:2:0
Bit depth : 8 bits
Scan type : Progressive
Bits/(Pixel*Frame) : 0.101
Stream size : 844 MiB (91%)
Title : ripped by CrazyHDSource.com
Language : English
Default : Yes
Forced : No
Color primaries : BT.709
Transfer characteristics : BT.709
Matrix coefficients : BT.709

Audio
ID : 2
Format : AC-3
Format/Info : Audio Coding 3
Mode extension : CM (complete main)
Format settings, Endianness : Big
Codec ID : A_AC3
Duration : 23mn 26s
Bit rate mode : Constant
Bit rate : 384 Kbps
Channel(s) : 6 channels
Channel positions : Front: L C R, Side: L R, LFE
Sampling rate : 48.0 KHz
Bit depth : 16 bits
Compression mode : Lossy
Stream size : 64.4 MiB (7%)
Language : English
Default : Yes
Forced : No

Text
ID : 3
Format : UTF-8
Codec ID : S_TEXT/UTF8
Codec ID/Info : UTF-8 Plain Text
Language : English
Default : No
Forced : No

Screenshot:

Sign up via clicking banner and a file link to creat a premium account.Then Get the access to protected links.

ExtMatrix Download Links

Young.and.Hungry.S01E01.Pilot.1080p.WEB-DL.DD5.1.H.264-NTb.mkv
Young.and.Hungry.2014.S01E02.1080p.WEB-DL.DD5.1.H.264.HKD.part2.rar
Young.and.Hungry.2014.S01E02.1080p.WEB-DL.DD5.1.H.264.HKD.part1.rar
Young.and.Hungry.2014.S01E03.1080p.WEB-DL.DD5.1.H.264.HKD.part2.rar
Young.and.Hungry.2014.S01E03.1080p.WEB-DL.DD5.1.H.264.HKD.part1.rar
Young.and.Hungry.2014.S01E04.1080p.WEB-DL.DD5.1.H.264.HKD.part2.rar
Young.and.Hungry.2014.S01E04.1080p.WEB-DL.DD5.1.H.264.HKD.part1.rar
Young.and.Hungry.S01E05.Young.and.Younger.1080p.WEB-DL.DD5.1.H.264-NTb.mkv
Young.and.Hungry.S01E06.Young.and.Punchy.1080p.WEB-DL.DD5.1.H.264-NTb.mkv
Young.and.Hungry.S01E07.Young.and.Secret.1080p.WEB-DL.DD5.1.H.264-NTb.mkv
Young.and.Hungry.S01E08.Young.and.Car-Less.1080p.WEB-DL.DD5.1.H.264-NTb.mkv
Young.and.Hungry.S01E09.Young.and.Getting.Played.1080p.WEB-DL.DD5.1.H.264-NTb.mkv
Young.and.Hungry.S01E10.Young.and.Thirty.(..and getting married!).1080p.WEB-DL.DD5.1.H.264-NTb.mkv