Useful link:

IMDB

TVRAGE

TVDB

MediaInfo:
General
Complete name : 24.S09E01.1080p.WEB-DL.DD5.1.H.264.HKD.mkv
Format : Matroska
Format version : Version 4 / Version 2
File size : 1.84 GiB
Duration : 44mn 31s
Overall bit rate : 5 922 Kbps
Movie name : ripped by CrazyHDSource.com

Video
ID : 1
Format : AVC
Format/Info : Advanced Video Codec
Format profile : High@L4.0
Format settings, CABAC : Yes
Format settings, ReFrames : 4 frames
Codec ID : V_MPEG4/ISO/AVC
Duration : 44mn 31s
Bit rate : 5 420 Kbps
Width : 1 920 pixels
Height : 1 080 pixels
Display aspect ratio : 16:9
Frame rate mode : Constant
Frame rate : 23.976 fps
Color space : YUV
Chroma subsampling : 4:2:0
Bit depth : 8 bits
Scan type : Progressive
Bits/(Pixel*Frame) : 0.109
Stream size : 1.69 GiB (92%)
Title : ripped by CrazyHDSource.com
Language : English
Default : Yes
Forced : No
Color primaries : BT.709
Transfer characteristics : BT.709
Matrix coefficients : BT.709

Audio
ID : 2
Format : AC-3
Format/Info : Audio Coding 3
Mode extension : CM (complete main)
Format settings, Endianness : Big
Codec ID : A_AC3
Duration : 44mn 31s
Bit rate mode : Constant
Bit rate : 384 Kbps
Channel(s) : 6 channels
Channel positions : Front: L C R, Side: L R, LFE
Sampling rate : 48.0 KHz
Bit depth : 16 bits
Compression mode : Lossy
Stream size : 122 MiB (6%)
Language : English
Default : Yes
Forced : No

Text
ID : 3
Format : UTF-8
Codec ID : S_TEXT/UTF8
Codec ID/Info : UTF-8 Plain Text
Language : English
Default : No
Forced : No

24.S09E01.11.AM 12.PM.720p.WEB DL.DD5.1.H.264 NTb.mkv 1.49 GB
24.S09E02.12.PM 1.PM.720p.WEB DL.DD5.1.H.264 NTb.mkv 1.30 GB
24.S09E03.1.PM 2.PM.720p.WEB DL.DD5.1.H.264 NTb.mkv 1.44 GB
24.S09E04.2.PM 3.PM.720p.WEB DL.DD5.1.H.264 NTb.mkv 1.44 GB
24.S09E05.3.PM 4.PM.720p.WEB DL.DD5.1.H.264 NTb.mkv 1.36 GB
24.S09E06.4.PM 5.PM.720p.WEB DL.DD5.1.H.264 NTb.mkv 1.41 GB
24.S09E07.5.PM 6.PM.720p.WEB DL.DD5.1.H.264 NTb.mkv 1.46 GB
24.S09E08.6.PM 7.PM.720p.WEB DL.DD5.1.H.264 NTb.mkv 1.39 GB
24.S09E09.7.PM 8.PM.720p.WEB DL.DD5.1.H.264 NTb.mkv 1.36 GB
24.S09E10.8.PM 9.PM.720p.WEB DL.DD5.1.H.264 NTb.mkv 1.46 GB
24.S09E11.9.PM 10.PM.720p.WEB DL.DD5.1.H.264 NTb.mkv 1.39 GB
24.S09E12.10.PM 11.PM.720p.WEB DL.DD5.1.H.264 NTb.mkv 1.42 GB

24.S09E01.11.AM 12.PM.1080p.WEB DL.DD5.1.H.264 HKD.mkv 1.83 GB
24.S09E02.12.PM 1.PM.1080p.WEB DL.DD5.1.H.264 HKD.mkv 1.64 GB
24.S09E03.1.PM 2.PM.1080p.WEB DL.DD5.1.H.264 NTb.mkv 1.68 GB
24.S09E04.2.PM 3.PM.1080p.WEB DL.DD5.1.H.264 NTb.mkv 1.66 GB
24.S09E05.3.PM 4.PM.1080p.WEB DL.DD5.1.H.264 HKD.mkv 1.66 GB
24.S09E06.4.PM 5.PM.1080p.WEB DL.DD5.1.H.264 NTb.mkv 1.75 GB
24.S09E07.5.PM 6.PM.1080p.WEB DL.DD5.1.H.264 NTb.mkv 1.69 GB
24.S09E08.6.PM 7.PM.1080p.WEB DL.DD5.1.H.264 NTb.mkv 1.69 GB
24.S09E09.7.PM 8.PM.1080p.WEB DL.DD5.1.H.264 NTb.mkv 1.67 GB
24.S09E10.8.PM 9.PM.1080p.WEB DL.DD5.1.H.264 NTb.mkv 1.67 GB
24.S09E11.9.PM 10.PM.1080p.WEB DL.DD5.1.H.264 HKD.mkv 1.65 GB
24.S09E12.10.PM 11.PM.1080p.WEB DL.DD5.1.H.264 NTb.mkv 1.66 GB
Screenshot:

Sign up via clicking banner and a file link to creat a premium account.Then Get the access to protected links.

ExtMatrix Download Links

24.S09E01.11.AM-12.PM.720p.WEB-DL.DD5.1.H.264-NTb.mkv
24.S09E02.12.PM-1.PM.720p.WEB-DL.DD5.1.H.264-NTb.mkv
24.S09E03.1.PM-2.PM.720p.WEB-DL.DD5.1.H.264-NTb.mkv
24.S09E04.2.PM-3.PM.720p.WEB-DL.DD5.1.H.264-NTb.mkv
24.S09E05.3.PM-4.PM.720p.WEB-DL.DD5.1.H.264-NTb.mkv
24.S09E06.4.PM-5.PM.720p.WEB-DL.DD5.1.H.264-NTb.mkv
24.S09E07.5.PM-6.PM.720p.WEB-DL.DD5.1.H.264-NTb.mkv
24.S09E08.6.PM-7.PM.720p.WEB-DL.DD5.1.H.264-NTb.mkv
24.S09E09.7.PM-8.PM.720p.WEB-DL.DD5.1.H.264-NTb.mkv
24.S09E10.8.PM-9.PM.720p.WEB-DL.DD5.1.H.264-NTb.mkv
24.S09E11.9.PM-10.PM.720p.WEB-DL.DD5.1.H.264-NTb.mkv
24.S09E12.10.PM-11.PM.720p.WEB-DL.DD5.1.H.264-NTb.mkv

Click Here for downloading links 24 S09 Complete Season 1080p WEB-DL DD5 1 H 264 NTb HKD