Useful link:

MediaInfo:
General
Complete name : 3.days.to.kill.2014.extended.720p.bluray.x264-sparks.mkv
Format : Matroska
Format version : Version 2
File size : 5.46 GiB
Duration : 2h 2mn
Overall bit rate : 6 393 Kbps

Video
ID : 1
Format : AVC
Format/Info : Advanced Video Codec
Format profile : High@L4.1
Format settings, CABAC : Yes
Format settings, ReFrames : 5 frames
Codec ID : V_MPEG4/ISO/AVC
Duration : 2h 2mn
Bit rate : 4 882 Kbps
Width : 1 280 pixels
Height : 536 pixels
Display aspect ratio : 2.40:1
Frame rate mode : Constant
Frame rate : 23.976 fps
Color space : YUV
Chroma subsampling : 4:2:0
Bit depth : 8 bits
Scan type : Progressive
Bits/(Pixel*Frame) : 0.297
Stream size : 4.06 GiB (74%)
Writing library : x264 core 142 r2431 ac76440
Encoding settings : cabac=1 / ref=5 / deblock=1:0:0 / analyse=0x3:0x133 / me=umh / subme=7 / psy=1 /

Audio
ID : 2
Format : DTS
Format/Info : Digital Theater Systems
Mode : 16
Format settings, Endianness : Big
Codec ID : A_DTS
Duration : 2h 2mn
Bit rate mode : Constant
Bit rate : 1 509 Kbps
Channel(s) : 6 channels
Channel positions : Front: L C R, Side: L R, LFE
Sampling rate : 48.0 KHz
Bit depth : 24 bits
Compression mode : Lossy
Stream size : 1.29 GiB (24%)
Language : English
Default : Yes
Forced : No

Text
ID : 3
Format : UTF-8
Codec ID : S_TEXT/UTF8
Codec ID/Info : UTF-8 Plain Text
Language : English
Default : No
Forced : No

Menu
00:00:00.000 : en:00:00:00.000
00:03:35.132 : en:00:03:35.132
00:06:58.543 : en:00:06:58.543
00:10:56.573 : en:00:10:56.573
00:16:00.710 : en:00:16:00.710
00:20:51.709 : en:00:20:51.709
00:25:05.963 : en:00:25:05.963
00:29:24.346 : en:00:29:24.346
00:34:20.392 : en:00:34:20.392
00:37:46.806 : en:00:37:46.806
00:40:27.300 : en:00:40:27.300
00:44:05.226 : en:00:44:05.226
00:49:24.795 : en:00:49:24.795
00:53:16.443 : en:00:53:16.443
00:57:40.874 : en:00:57:40.874
01:08:28.396 : en:01:08:28.396
01:13:37.621 : en:01:13:37.621
01:19:51.828 : en:01:19:51.828
01:25:59.070 : en:01:25:59.070
01:32:28.167 : en:01:32:28.167
01:39:10.569 : en:01:39:10.569
01:42:49.413 : en:01:42:49.413
01:51:49.452 : en:01:51:49.452
01:54:55.597 : en:01:54:55.597

Screenshot:

Sign up via clicking banner and a file link to creat a premium account.Then Get the access to protected links.

ExtMatrix Download Links

3.days.to.kill.2014.extended.720p.bluray.x264-sparks.mkv