External Links:

General
Complete name : Alpha.House.S01E03.WEBRip.1080p.x264.DD5.1-Absinth.mkv
Format : Matroska
Format version : Version 4 / Version 2
File size : 1.28 GiB
Duration : 24mn 36s
Overall bit rate : 7 456 Kbps

Video
ID : 1
Format : AVC
Format/Info : Advanced Video Codec
Format profile : High@L4.0
Format settings, CABAC : Yes
Format settings, ReFrames : 4 frames
Codec ID : V_MPEG4/ISO/AVC
Duration : 24mn 36s
Bit rate : 6 924 Kbps
Width : 1 920 pixels
Height : 1 080 pixels
Display aspect ratio : 16:9
Frame rate mode : Constant
Frame rate : 23.976 fps
Color space : YUV
Chroma subsampling : 4:2:0
Bit depth : 8 bits
Scan type : Progressive
Bits/(Pixel*Frame) : 0.139
Stream size : 1.19 GiB (93%)
Writing library : x264 core 133 r2334 a3ac64b
Encoding settings : cabac=1 / ref=3 / deblock=1:-1:-1 / analyse=0x3:0x113 / me=hex / subme=7 /

Audio
ID : 2
Format : AC-3
Format/Info : Audio Coding 3
Mode extension : CM (complete main)
Format settings, Endianness : Big
Codec ID : A_AC3
Duration : 24mn 36s
Bit rate mode : Constant
Bit rate : 384 Kbps
Channel(s) : 6 channels
Channel positions : Front: L C R, Side: L R, LFE
Sampling rate : 48.0 KHz
Bit depth : 16 bits
Compression mode : Lossy
Delay relative to video : 334ms
Stream size : 67.6 MiB (5%)
Default : Yes
Forced : No

Screenshot:

Sign up via clicking banner and a file link to creat a premium account.Then Get the access to protected links.

ExtMatrix Download Links

Alpha.House.S01E01.WEBRip.1080p.x264.DD5.1-Absinth.mkv
Alpha.House.S01E02.WEBRip.1080p.x264.DD5.1-Absinth.mkv
Alpha.House.S01E03.WEBRip.1080p.x264.DD5.1-Absinth.mkv
Alpha.House.S01E04.720p.WEBRip.H264-TDay.mkv
Alpha.House.S01E05.720p.WEBRip.H264-TDay.mkv
Alpha.House.S01E06.Zingers.720p.WEBRip.AAC2.0.x264-JJ.mkv
Alpha.House.S01E07.Prayer.Brunch.720p.WEBRip.AAC2.0.x264-JJ.mkv