Useful link:

IMDB

TVRAGE

TVDB

MediaInfo:
General
Complete name : banshee.s03e01.hdtv.1080i.awedia.ts
Format : MPEG-TS
File size : 4.89 GiB
Duration : 48mn 14s
Overall bit rate mode : Variable
Overall bit rate : 14.5 Mbps

Video
Format : AVC
Format/Info : Advanced Video Codec
Format profile : Main@L4.0
Format settings, CABAC : Yes
Format settings, ReFrames : 4 frames
Codec ID : 27
Duration : 48mn 14s
Width : 1 920 pixels
Height : 1 080 pixels
Display aspect ratio : 16:9
Frame rate : 25.000 fps
Standard : Component
Color space : YUV
Chroma subsampling : 4:2:0
Bit depth : 8 bits
Scan type : Interlaced
Scan order : Top Field First
Color primaries : BT.709
Transfer characteristics : BT.709
Matrix coefficients : BT.709
Color range : Limited

Audio #1
ID : 302 (0x12E)
Menu ID : 503 (0x1F7)
Format : MPEG Audio
Format version : Version 1
Format profile : Layer 2
Codec ID : 3
Duration : 48mn 14s
Bit rate mode : Constant
Bit rate : 192 Kbps
Channel(s) : 2 channels
Sampling rate : 48.0 KHz
Compression mode : Lossy
Delay relative to video : -11ms
Stream size : 66.3 MiB (1%)
Language : Russian

Audio #2
ID : 303 (0x12F)
Menu ID : 503 (0x1F7)
Format : MPEG Audio
Format version : Version 1
Format profile : Layer 2
Mode : Joint stereo
Mode extension : Intensity Stereo + MS Stereo
Codec ID : 3
Duration : 48mn 14s
Bit rate mode : Constant
Bit rate : 192 Kbps
Channel(s) : 2 channels
Sampling rate : 48.0 KHz
Compression mode : Lossy
Delay relative to video : -11ms
Stream size : 66.3 MiB (1%)
Language : English

Audio #3
ID : 304 (0x130)
Menu ID : 503 (0x1F7)
Format : AAC
Format/Info : Advanced Audio Codec
Format version : Version 2
Format profile : LC
Muxing mode : ADTS
Codec ID : 15
Duration : 48mn 14s
Bit rate mode : Variable
Channel(s) : 6 channels
Channel positions : Front: L C R, Side: L R, LFE
Sampling rate : 48.0 KHz
Compression mode : Lossy
Delay relative to video : -20ms
Language : Russian

Screenshot:

Sign up via clicking banner and a file link to creat a premium account.Then Get the access to protected links.

ExtMatrix Download Links

Banshee.S03E01.720p.HDTV.DD5.1.x264-DON.mkv
banshee.s03e01.hdtv.1080i.awedia.ts
Banshee.S03E02.720p.HDTV.DD5.1.x264-DON.mkv
Banshee.S03E03.720p.HDTV.x264-KILLERS.mkv