External Links:

General
Complete name : Betrayal.S01E01.1080p.WEB-DL.DD5.1.H.264.HKD.mkv
Format : Matroska
Format version : Version 4 / Version 2
File size : 1.51 GiB
Duration : 43mn 8s
Overall bit rate : 4 999 Kbps
Movie name : ripped by CrazyHDSource.com

Video
ID : 1
Format : AVC
Format/Info : Advanced Video Codec
Format profile : High@L4.0
Format settings, CABAC : Yes
Format settings, ReFrames : 4 frames
Codec ID : V_MPEG4/ISO/AVC
Duration : 43mn 8s
Bit rate : 4 516 Kbps
Width : 1 920 pixels
Height : 1 080 pixels
Display aspect ratio : 16:9
Frame rate mode : Constant
Frame rate : 23.962 fps
Color space : YUV
Chroma subsampling : 4:2:0
Bit depth : 8 bits
Scan type : Progressive
Bits/(Pixel*Frame) : 0.091
Stream size : 1.36 GiB (90%)
Title : ripped by CrazyHDSource.com
Language : English
Default : Yes
Forced : No
Color primaries : BT.709
Transfer characteristics : BT.709
Matrix coefficients : BT.709

Audio
ID : 2
Format : AC-3
Format/Info : Audio Coding 3
Mode extension : CM (complete main)
Format settings, Endianness : Big
Codec ID : A_AC3
Duration : 43mn 8s
Bit rate mode : Constant
Bit rate : 384 Kbps
Channel(s) : 6 channels
Channel positions : Front: L C R, Side: L R, LFE
Sampling rate : 48.0 KHz
Bit depth : 16 bits
Compression mode : Lossy
Delay relative to video : 14ms
Stream size : 118 MiB (8%)
Language : English
Default : Yes
Forced : No

Text
ID : 3
Format : UTF-8
Codec ID : S_TEXT/UTF8
Codec ID/Info : UTF-8 Plain Text
Language : English
Default : No
Forced : No

Betrayal.S01.Trailer.720p.WEB-DL.AAC2.0.H.264.HKD.mkv 89.92 MB

10.Series.On.ABC.Drama.Sizzle.720p.WEB-DL.AAC2.0.H.264.HKD.mkv 15.38 MB
Screenshot:

Sign up via clicking banner and a file link to creat a premium account.Then Get the access to protected links.

ExtMatrix Download Links

10.Series.On.ABC.Drama.Sizzle.720p.WEB-DL.AAC2.0.H.264.HKD.mkv
The.Betray.S01E01.1080p.WEB-DL.DD5.1.H.264.HKD.part2.rar
Betrayal.S01E03.If.You.Want.the.Fruit.1080p.WEB-DL.DD5.1.H.264-BS.mkv
Betrayal.S01E08.720p.HDTV.X264-DIMENSION.mkv
Betrayal.S01E10.1080p.WEB-DL.DD5.1.H.264-KiNGS.mkv
Betrayal.S01E11.720p.HDTV.X264-DIMENSION.mkv

Click Here for downloading links Betrayal S01E06 1080p WEB-DL DD5.1 H.264 HKD

Click Here for downloading links Betrayal S01E07 1080p WEB-DL DD5.1 H.264 HKD

Click Here for downloading links Betrayal S01E08 1080p WEB-DL DD5.1 H.264 HKD

Click Here for downloading links Betrayal S01E11 1080p WEB-DL DD5.1 H.264 HKD