External Links:

General
Complete name : Blue.Bloods.S01E20.All That Glitters.720p.WEB-DL.DD5.1.H.264-NT.mkv
Format : Matroska
Format version : Version 2
File size : 1.33 GiB
Duration : 43mn 38s
Overall bit rate : 4 372 Kbps

Video
ID : 1
Format : AVC
Format/Info : Advanced Video Codec
Format profile : High@L3.1
Format settings, CABAC : No
Format settings, ReFrames : 2 frames
Codec ID : V_MPEG4/ISO/AVC
Duration : 43mn 38s
Bit rate : 3 901 Kbps
Width : 1 280 pixels
Height : 720 pixels
Display aspect ratio : 16:9
Frame rate mode : Constant
Frame rate : 23.976 fps
Color space : YUV
Chroma subsampling : 4:2:0
Bit depth : 8 bits
Scan type : Progressive
Bits/(Pixel*Frame) : 0.177
Stream size : 1.19 GiB (89%)
Language : English
Default : Yes
Forced : No
Color primaries : BT.709
Transfer characteristics : BT.709
Matrix coefficients : BT.709

Audio
ID : 2
Format : AC-3
Format/Info : Audio Coding 3
Mode extension : CM (complete main)
Format settings, Endianness : Big
Codec ID : A_AC3
Duration : 43mn 38s
Bit rate mode : Constant
Bit rate : 384 Kbps
Channel(s) : 6 channels
Channel positions : Front: L C R, Side: L R, LFE
Sampling rate : 48.0 KHz
Bit depth : 16 bits
Compression mode : Lossy
Stream size : 120 MiB (9%)
Language : English
Default : Yes
Forced : No

Blue.Bloods.S01.720p.WEB-DL.DD5.1.H.264 NT RESiNOUS LP

File Name Size
Blue.Bloods.S01E01.Pilot.720p.WEB DL.DD5.1.H.264 NT.mkv 1.34 GB
Blue.Bloods.S01E02.Samaritan.720p.WEB DL.DD5.1.H.264 NT.mkv 1.40 GB
Blue.Bloods.S01E03.Priviledge.720p.WEB DL.DD5.1.H.264 NT.mkv 1.37 GB
Blue.Bloods.S01E04.Officer Down.720p.WEB DL.DD5.1.H.264 NT.mkv 1.33 GB
Blue.Bloods.S01E05.What You See.720p.WEB DL.DD5.1.H.264 RESiNOUS.mkv 1.38 GB
Blue.Bloods.S01E06.Smack Attack.720p.WEB DL.DD5.1.H.264 LP.mkv 1.39 GB
Blue.Bloods.S01E07.Brothers.720p.WEB DL.DD5.1.H.264 NT.mkv 1.35 GB
Blue.Bloods.S01E08.Chinatown.720p.WEB DL.DD5.1.H.264 NT.mkv 1.36 GB
Blue.Bloods.S01E09.Re Do.720p.WEB DL.DD5.1.H.264 NT.mkv 1.27 GB
Blue.Bloods.S01E10.After Hours.720p.WEB DL.DD5.1.H.264 RESiNOUS.mkv 1.35 GB
Blue.Bloods.S01E11.Little Fish.720p.WEB DL.DD5.1.H.264 RESiNOUS.mkv 1.34 GB
Blue.Bloods.S01E12.Family Ties.720p.WEB DL.DD5.1.H.264 RESiNOUS.mkv 1.33 GB
Blue.Bloods.S01E13.Hall of Mirrors.720p.WEB DL.DD5.1.H.264 RESiNOUS.mkv 1.30 GB
Blue.Bloods.S01E14.My Funny Valentine.720p.WEB DL.DD5.1.H.264 RESiNOUS.mkv 1.37 GB
Blue.Bloods.S01E15.Dedication.720p.WEB DL.DD5.1.H.264 RESiNOUS.mkv 1.29 GB
Blue.Bloods.S01E16.Age of Innocence.720p.WEB DL.DD5.1.H.264 NT.mkv 1.29 GB
Blue.Bloods.S01E17.Silver Star.720p.WEB DL.DD5.1.H.264 RESiNOUS.mkv 1.35 GB
Blue.Bloods.S01E18.To Tell the Truth.720p.WEB DL.DD5.1.H.264 NT.mkv 1.35 GB
Blue.Bloods.S01E19.Model Behavior.720p.WEB DL.DD5.1.H.264 NT.mkv 1.29 GB
Blue.Bloods.S01E20.All That Glitters.720p.WEB DL.DD5.1.H.264 NT.mkv 1.33 GB
Blue.Bloods.S01E21.Cellar Boy.720p.WEB DL.DD5.1.H.264 NT.mkv 1.36 GB
Blue.Bloods.S01E22.The Blue Templar.720p.WEB DL.DD5.1.H.264 NT.mkv 1.38 GB

Blue.Bloods.S02.720p.WEB-DL.DD5.1.H264-KiNGS
Blue.Bloods.S02E22.720p.WEB DL.DD5.1.H264 KiNGS.mkv 1.39 GB
Blue.Bloods.S02E21.720p.WEB DL.DD5.1.H264 KiNGS.mkv 1.32 GB
Blue.Bloods.S02E20.720p.WEB DL.DD5.1.H264 KiNGS.mkv 1.25 GB
Blue.Bloods.S02E19.720p.WEB DL.DD5.1.H264 KiNGS.mkv 1.25 GB
Blue.Bloods.S02E18.720p.WEB DL.DD5.1.H264 KiNGS.mkv 1.33 GB
Blue.Bloods.S02E17.720p.WEB DL.DD5.1.H264 KiNGS.mkv 1.31 GB
Blue.Bloods.S02E16.720p.WEB DL.DD5.1.H264 KiNGS.mkv 1.28 GB
Blue.Bloods.S02E15.720p.WEB DL.DD5.1.H264 KiNGS.mkv 1.23 GB
Blue.Bloods.S02E14.720p.WEB DL.DD5.1.H264 KiNGS.mkv 1.29 GB
Blue.Bloods.S02E13.720p.WEB DL.DD5.1.H264 KiNGS.mkv 1.33 GB
Blue.Bloods.S02E12.720p.WEB DL.DD5.1.H264 KiNGS.mkv 1.30 GB
Blue.Bloods.S02E11.720p.WEB DL.DD5.1.H264 KiNGS.mkv 1.23 GB
Blue.Bloods.S02E10.720p.WEB DL.DD5.1.H264 KiNGS.mkv 1.32 GB
Blue.Bloods.S02E09.720p.WEB DL.DD5.1.H264 KiNGS.mkv 1.30 GB
Blue.Bloods.S02E08.720p.WEB DL.DD5.1.H264 KiNGS.mkv 1.34 GB
Blue.Bloods.S02E07.720p.WEB DL.DD5.1.H264 KiNGS.mkv 1.31 GB
Blue.Bloods.S02E06.720p.WEB DL.DD5.1.H264 KiNGS.mkv 1.30 GB
Blue.Bloods.S02E05.720p.WEB DL.DD5.1.H264 KiNGS.mkv 1.29 GB
Blue.Bloods.S02E04.720p.WEB DL.DD5.1.H264 KiNGS.mkv 1.35 GB
Blue.Bloods.S02E03.720p.WEB DL.DD5.1.H264 KiNGS.mkv 1.30 GB
Blue.Bloods.S02E02.720p.WEB DL.DD5.1.H264 KiNGS.mkv 1.34 GB
Blue.Bloods.S02E01.720p.WEB DL.DD5.1.H264 KiNGS.mkv 1.35 GB

Screenshot:

Sign up via clicking banner and a file link to creat a premium account.Then Get the access to protected links.

ExtMatrix Download Links

Blue.Bloods.S01E01.Pilot.720p.WEB-DL.DD5.1.H.264-NT.mkv
Blue.Bloods.S01E02.Samaritan.720p.WEB-DL.DD5.1.H.264-NT.mkv
Blue.Bloods.S01E03.Priviledge.720p.WEB-DL.DD5.1.H.264-NT.mkv
Blue.Bloods.S01E04.Officer Down.720p.WEB-DL.DD5.1.H.264-NT.mkv
Blue.Bloods.S01E05.What You See.720p.WEB-DL.DD5.1.H.264-RESiNOUS.mkv
Blue.Bloods.S01E06.Smack Attack.720p.WEB-DL.DD5.1.H.264-LP.mkv

Click Here for downloading links Blue Bloods Complete S01 S02 720p WEB-DL DD5.1 H.264 NT RESiNOUS LP KiNGS