Useful link:

IMDB

TVRAGE

TVDB

MediaInfo:
General
Complete name : Boardwalk.Empire.S04E03.Acres.of.Diamonds.720p.BluRay.DD5.1.×264-DON.mkv
Format : Matroska
Format version : Version 4 / Version 2
File size : 1.73 GiB
Duration : 55mn 50s
Overall bit rate : 4 427 Kbps

Video
ID : 1
Format : AVC
Format/Info : Advanced Video Codec
Format profile : High@L4.1
Format settings, CABAC : Yes
Format settings, ReFrames : 9 frames
Codec ID : V_MPEG4/ISO/AVC
Duration : 55mn 50s
Bit rate : 3 699 Kbps
Width : 1 280 pixels
Height : 720 pixels
Display aspect ratio : 16:9
Frame rate mode : Constant
Frame rate : 23.976 fps
Color space : YUV
Chroma subsampling : 4:2:0
Bit depth : 8 bits
Scan type : Progressive
Bits/(Pixel*Frame) : 0.167
Stream size : 1.44 GiB (84%)
Writing library : x264 core 133 r2334 a3ac64b
Encoding settings : cabac=1 / ref=9 / deblock=1:-3:-3 / analyse=0x3:0x133 / me=tesa / subme=10 / psy=1 /

Audio
ID : 2
Format : AC-3
Format/Info : Audio Coding 3
Mode extension : CM (complete main)
Format settings, Endianness : Big
Codec ID : A_AC3
Duration : 55mn 50s
Bit rate mode : Constant
Bit rate : 640 Kbps
Channel(s) : 6 channels
Channel positions : Front: L C R, Side: L R, LFE
Sampling rate : 48.0 KHz
Bit depth : 16 bits
Compression mode : Lossy
Stream size : 256 MiB (14%)
Language : English
Default : Yes
Forced : No

Text #1
ID : 3
Format : UTF-8
Codec ID : S_TEXT/UTF8
Codec ID/Info : UTF-8 Plain Text
Language : English
Default : No
Forced : No

Text #2
ID : 4
Format : UTF-8
Codec ID : S_TEXT/UTF8
Codec ID/Info : UTF-8 Plain Text
Title : SDH
Language : English
Default : No
Forced : No

Menu
00:00:00.000 : en:Chapter 1
00:01:37.514 : en:Chapter 2
00:07:53.348 : en:Chapter 3
00:17:46.565 : en:Chapter 4
00:26:55.781 : en:Chapter 5
00:36:26.893 : en:Chapter 6
00:44:44.807 : en:Chapter 7
00:54:33.896 : en:Chapter 8

Boardwalk.Empire.S04E01.New.York.Sour.720p.BluRay.DD5.1.x264 DON.mkv 1.64 GB
Boardwalk.Empire.S04E02.Resignation.720p.BluRay.DD5.1.x264 DON.mkv 1.67 GB
Boardwalk.Empire.S04E03.Acres.of.Diamonds.720p.BluRay.DD5.1.x264 DON.mkv 1.73 GB
Boardwalk.Empire.S04E04.All.In.720p.BluRay.DD5.1.x264 DON.mkv 1.76 GB
Boardwalk.Empire.S04E05.Erlk├Ânig.720p.BluRay.DD5.1.x264 DON.mkv 1.87 GB
Boardwalk.Empire.S04E06.The.North.Star.720p.BluRay.DD5.1.x264 DON.mkv 1.72 GB
Boardwalk.Empire.S04E07.William.Wilson.720p.BluRay.DD5.1.x264 DON.mkv 1.52 GB
Boardwalk.Empire.S04E08.The.Old.Ship.of.Zion.720p.BluRay.DD5.1.x264 DON.mkv 1.94 GB
Boardwalk.Empire.S04E09.Marriage.and.Hunting.720p.BluRay.DD5.1.x264 DON.mkv 1.80 GB
Boardwalk.Empire.S04E10.White.Horse.Pike.720p.BluRay.DD5.1.x264 DON.mkv 1.66 GB
Boardwalk.Empire.S04E11.Havre.de.Grace.720p.BluRay.DD5.1.x264 DON.mkv 1.88 GB
Boardwalk.Empire.S04E12.Farewell.Daddy.Blues.720p.BluRay.DD5.1.x264 DON.mkv 1.61 GB

Screenshot:

Sign up via clicking banner and a file link to creat a premium account.Then Get the access to protected links.

ExtMatrix Download Links

Boardwalk.Empire.S04E01.New.York.Sour.720p.BluRay.DD5.1.x264-DON.mkv
Boardwalk.Empire.S04E02.Resignation.720p.BluRay.DD5.1.x264-DON.mkv
Boardwalk.Empire.S04E03.Acres.of.Diamonds.720p.BluRay.DD5.1.x264-DON.mkv
Boardwalk.Empire.S04E04.All.In.720p.BluRay.DD5.1.x264-DON.mkv
Boardwalk.Empire.S04E05.Erlkonig.720p.BluRay.DD5.1.x264-DON.mkv
Boardwalk.Empire.S04E06.The.North.Star.720p.BluRay.DD5.1.x264-DON.mkv
Boardwalk.Empire.S04E07.William.Wilson.720p.BluRay.DD5.1.x264-DON.mkv
Boardwalk.Empire.S04E08.The.Old.Ship.of.Zion.720p.BluRay.DD5.1.x264-DON.mkv
Boardwalk.Empire.S04E09.Marriage.and.Hunting.720p.BluRay.DD5.1.x264-DON.mkv
Boardwalk.Empire.S04E10.White.Horse.Pike.720p.BluRay.DD5.1.x264-DON.mkv
Boardwalk.Empire.S04E11.Havre.de.Grace.720p.BluRay.DD5.1.x264-DON.mkv
Boardwalk.Empire.S04E12.Farewell.Daddy.Blues.720p.BluRay.DD5.1.x264-DON.mkv