Useful link:

MediaInfo:

General
Complete name : Cashback.2006.720p.BluRay.X264-AMIABLE.mkv
Format : Matroska
Format version : Version 4 / Version 2
File size : 4.36 GiB
Duration : 1h 42mn
Overall bit rate : 6 111 Kbps

Video
ID : 1
Format : AVC
Format/Info : Advanced Video Codec
Format profile : High@L4.1
Format settings, CABAC : Yes
Format settings, ReFrames : 5 frames
Codec ID : V_MPEG4/ISO/AVC
Duration : 1h 42mn
Bit rate : 4 621 Kbps
Width : 1 280 pixels
Height : 544 pixels
Display aspect ratio : 2.35:1
Frame rate mode : Constant
Frame rate : 23.976 fps
Color space : YUV
Chroma subsampling : 4:2:0
Bit depth : 8 bits
Scan type : Progressive
Bits/(Pixel*Frame) : 0.277
Stream size : 3.19 GiB (73%)
Writing library : x264 core 138 r2358 9e941d1
Encoding settings : cabac=1 / ref=5 / deblock=1:-3:-3 / analyse=0x3:0x113 / me=umh / subme=8 / psy=1 /

Audio
ID : 2
Format : DTS
Format/Info : Digital Theater Systems
Mode : 16
Format settings, Endianness : Big
Codec ID : A_DTS
Duration : 1h 42mn
Bit rate mode : Constant
Bit rate : 1 509 Kbps
Channel(s) : 6 channels
Channel positions : Front: L C R, Side: L R, LFE
Sampling rate : 48.0 KHz
Bit depth : 24 bits
Compression mode : Lossy
Stream size : 1.08 GiB (25%)
Language : English
Default : Yes
Forced : No

Text #1
ID : 3
Format : UTF-8
Codec ID : S_TEXT/UTF8
Codec ID/Info : UTF-8 Plain Text
Title : SDH
Language : English
Default : No
Forced : No

Text #2
ID : 4
Format : UTF-8
Codec ID : S_TEXT/UTF8
Codec ID/Info : UTF-8 Plain Text
Language : English
Default : No
Forced : No

Menu
00:00:00.000 : en:00:00:00.000
00:01:20.747 : en:00:01:20.747
00:04:24.639 : en:00:04:24.639
00:10:39.973 : en:00:10:39.973
00:13:39.152 : en:00:13:39.152
00:16:52.678 : en:00:16:52.678
00:21:46.305 : en:00:21:46.305
00:25:01.500 : en:00:25:01.500
00:29:24.763 : en:00:29:24.763
00:32:43.503 : en:00:32:43.503
00:34:31.236 : en:00:34:31.236
00:40:06.362 : en:00:40:06.362
00:44:31.419 : en:00:44:31.419
00:47:32.308 : en:00:47:32.308
00:55:26.823 : en:00:55:26.823
00:58:53.780 : en:00:58:53.780
01:03:36.229 : en:01:03:36.229
01:11:02.467 : en:01:11:02.467
01:13:21.355 : en:01:13:21.355
01:17:19.802 : en:01:17:19.802
01:21:34.973 : en:01:21:34.973
01:28:49.908 : en:01:28:49.908
01:30:38.683 : en:01:30:38.683
01:35:57.752 : en:01:35:57.752

Screenshot:

Sign up via clicking banner and a file link to creat a premium account.Then Get the access to protected links.

ExtMatrix Download Links

Cashback.2006.720p.BluRay.X264-AMIABLE.mkv