External Links:

General
Complete name : Castle.2009.S06E01.1080p.WEB-DL.DD5.1.H.264.HKD.mkv
Format : Matroska
Format version : Version 4 / Version 2
File size : 1.62 GiB
Duration : 42mn 18s
Overall bit rate : 5 494 Kbps
Movie name : ripped by CrazyHDSource.com

Video
ID : 1
Format : AVC
Format/Info : Advanced Video Codec
Format profile : High@L4.0
Format settings, CABAC : Yes
Format settings, ReFrames : 4 frames
Codec ID : V_MPEG4/ISO/AVC
Duration : 42mn 18s
Bit rate : 5 001 Kbps
Width : 1 920 pixels
Height : 1 080 pixels
Display aspect ratio : 16:9
Frame rate mode : Constant
Frame rate : 23.976 fps
Color space : YUV
Chroma subsampling : 4:2:0
Bit depth : 8 bits
Scan type : Progressive
Bits/(Pixel*Frame) : 0.101
Stream size : 1.48 GiB (91%)
Title : ripped by CrazyHDSource.com
Language : English
Default : Yes
Forced : No
Color primaries : BT.709
Transfer characteristics : BT.709
Matrix coefficients : BT.709

Audio
ID : 2
Format : AC-3
Format/Info : Audio Coding 3
Mode extension : CM (complete main)
Format settings, Endianness : Big
Codec ID : A_AC3
Duration : 42mn 18s
Bit rate mode : Constant
Bit rate : 384 Kbps
Channel(s) : 6 channels
Channel positions : Front: L C R, Side: L R, LFE
Sampling rate : 48.0 KHz
Bit depth : 16 bits
Compression mode : Lossy
Stream size : 116 MiB (7%)
Language : English
Default : Yes
Forced : No

Text
ID : 3
Format : UTF-8
Codec ID : S_TEXT/UTF8
Codec ID/Info : UTF-8 Plain Text
Language : English
Default : No
Forced : No

Screenshot:

Sign up via clicking banner and a file link to creat a premium account.Then Get the access to protected links.

ExtMatrix Download Links

Castle.S06E01.Valkyrie.720p.WEB-DL.DD5.1.H.264-ECI.mkv
Castle.S06E02.Dreamworld.720p.WEB-DL.DD5.1.H.264-ECI.mkv
Castle.S06E03.Need.To.Know.720p.WEB-DL.DD5.1.H.264-ECI.mkv
Castle.S06E04.Number.One.Fan.720p.WEB-DL.DD5.1.H.264-ECI.mkv
Castle.S06E05.Time.Will.Tell.720p.WEB-DL.DD5.1.H.264-ECI.mkv
Castle.S06E06.Get.A.Clue.720p.WEB-DL.DD5.1.H.264-ECI.mkv
Castle.S06E07.Like.Father.Like.Daughter.720p.WEB-DL.DD5.1.H.264-ECI.mkv
Castle.S06E08.A.Murder.Is.Forever.720p.WEB-DL.DD5.1.H.264-ECI.mkv
Castle.S06E09.Disciple.720p.WEB-DL.DD5.1.H.264-ECI.mkv
Castle.S06E10.The.Good.The.Bad.And.The.Baby.720p.WEB-DL.DD5.1.H.264-ECI.mkv
Castle.2009.S06E11.720p.HDTV.X264-DIMENSION.mkv

Click Here for downloading links Castle 2009 S06E01 1080p WEB-DL DD5 1 H 264 HKD

Click Here for downloading links Castle 2009 S06E02 1080p WEB-DL DD5 1 H 264 HKD

Click Here for downloading links Castle 2009 S06E03 1080p WEB-DL DD5 1 H 264 HKD

Click Here for downloading links Castle 2009 S06E04 1080p WEB-DL DD5 1 H 264 HKD

Click Here for downloading links Castle 2009 S06E05 1080p WEB-DL DD5 1 H 264 HKD

Click Here for downloading links Castle 2009 S06E06 1080p WEB-DL DD5 1 H 264 HKD

Click Here for downloading links Castle 2009 S06E07 1080p WEB-DL DD5 1 H 264 HKD

Click Here for downloading links Castle 2009 S06E08 1080p WEB-DL DD5 1 H 264 HKD

Click Here for downloading links Castle 2009 S06E09 1080p WEB-DL DD5 1 H 264 HKD

Click Here for downloading links Castle 2009 S06E10 1080p WEB-DL DD5 1 H 264 HKD