External Links:

General
Complete name : Childrens Hospital S05E01 A New Hope 1080p WEB-DL DD5.1 H.264 – HoodBag.mkv
Format : Matroska
Format version : Version 4 / Version 2
File size : 444 MiB
Duration : 11mn 17s
Overall bit rate : 5 497 Kbps

Video
ID : 1
Format : AVC
Format/Info : Advanced Video Codec
Format profile : High@L4.0
Format settings, CABAC : Yes
Format settings, ReFrames : 4 frames
Codec ID : V_MPEG4/ISO/AVC
Duration : 11mn 17s
Bit rate : 5 003 Kbps
Width : 1 920 pixels
Height : 1 080 pixels
Display aspect ratio : 16:9
Frame rate mode : Constant
Frame rate : 23.976 fps
Color space : YUV
Chroma subsampling : 4:2:0
Bit depth : 8 bits
Scan type : Progressive
Bits/(Pixel*Frame) : 0.101
Stream size : 404 MiB (91%)
Language : English
Default : Yes
Forced : No
Color primaries : BT.709
Transfer characteristics : BT.709
Matrix coefficients : BT.709

Audio
ID : 2
Format : AC-3
Format/Info : Audio Coding 3
Mode extension : CM (complete main)
Format settings, Endianness : Big
Codec ID : A_AC3
Duration : 11mn 17s
Bit rate mode : Constant
Bit rate : 384 Kbps
Channel(s) : 6 channels
Channel positions : Front: L C R, Side: L R, LFE
Sampling rate : 48.0 KHz
Bit depth : 16 bits
Compression mode : Lossy
Stream size : 31.0 MiB (7%)
Language : English
Default : Yes
Forced : No

Childrens Hospital S05E01 A New Hope 1080p WEB DL DD5.1 H.264 HoodBag.mkv 443.92 MB
Screenshot:


Sign up via clicking banner and a file link to creat a premium account.

ExtMatrix Download Links
Childrens Hospital S05E01 A New Hope 1080p WEB-DL DD5.1 H.264 - HoodBag.mkv
Childrens Hospital S05E02 Triangles 1080p WEB-DL DD5.1 H.264 - HoodBag.mkv
Childrens Hospital S05E03 The C-Word 1080p WEB-DL DD5.1 H.264 - HoodBag.mkv
Childrens Hospital S05E04 Country Weekend 1080p WEB-DL DD5.1 H.264 - HoodBag.mkv
Childrens Hospital S05E05 Imaginary Friends 1080p WEB-DL DD5.1 H.264 - HoodBag.mkv
Childrens Hospital S05E06 The Gang Gets Sushi 1080p WEB-DL DD5.1 H.264 - HoodBag.mkv
Childrens Hospital S05E07 Old Fashioned Day 1080p WEB-DL DD5.1 H.264 - HoodBag.mkv
Childrens Hospital S05E08 Spoiler Alert - Owen Gets a Perm 1080p WEB-DL DD5.1 H.264 - HoodBag.mkv
Childrens Hospital S05E09 Wine Tasting 1080p WEB-DL DD5.1 H.264 - HoodBag.mkv
Childrens Hospital S05E10 Blaken 1080p WEB-DL DD5.1 H.264 - HoodBag.mkv
Childrens Hospital S05E11 A Lot of Brouhaha Over Zilch 1080p WEB-DL DD5.1 H.264 - HoodBag.mkv
Childrens Hospital S05E12 My Friend Falcon 1080p WEB-DL DD5.1 H.264 - HoodBag.mkv
Childrens Hospital S05E13 Coming and Going 1080p WEB-DL DD5.1 H.264 - HoodBag.mkv