Series Info
# of Seasons: 5
Country: US
Air Day: Thursday
Air Time: 8:00 PM
First Aired: 2009-09-17
Rating: TV-PG
Series Status: Returning Series
Runtime: 30 Minutes
Network: NBC
Classification: Scripted
TVDB Rating: 8.9
External Links:

 Community (2009– )

TV Series  –   –  tvComedy
8.8

Your rating:

   -/10
Ratings: 8.8/10 from 70,950 users
Reviews: 93 user | 29 critic

 

A smarmy lawyer, whose education is deemed void by the bar, is forced to attend a local community college with an extremely eclectic staff and student body.

 

General
Complete name : Community.S05E02.1080p.WEB-DL.DD5.1.H.264.HKD.mkv
Format : Matroska
Format version : Version 4 / Version 2
File size : 861 MiB
Duration : 21mn 35s
Overall bit rate : 5 575 Kbps
Movie name : ripped by CrazyHDSource.com

Video
ID : 1
Format : AVC
Format/Info : Advanced Video Codec
Format profile : High@L4.0
Format settings, CABAC : Yes
Format settings, ReFrames : 4 frames
Codec ID : V_MPEG4/ISO/AVC
Duration : 21mn 35s
Bit rate : 5 080 Kbps
Width : 1 916 pixels
Height : 1 076 pixels
Display aspect ratio : 16:9
Frame rate mode : Constant
Frame rate : 23.976 fps
Color space : YUV
Chroma subsampling : 4:2:0
Bit depth : 8 bits
Scan type : Progressive
Bits/(Pixel*Frame) : 0.103
Stream size : 784 MiB (91%)
Title : ripped by CrazyHDSource.com
Language : English
Default : Yes
Forced : No
Color primaries : BT.709
Transfer characteristics : BT.709
Matrix coefficients : BT.709

Audio
ID : 2
Format : AC-3
Format/Info : Audio Coding 3
Mode extension : CM (complete main)
Format settings, Endianness : Big
Codec ID : A_AC3
Duration : 21mn 35s
Bit rate mode : Constant
Bit rate : 384 Kbps
Channel(s) : 6 channels
Channel positions : Front: L C R, Side: L R, LFE
Sampling rate : 48.0 KHz
Bit depth : 16 bits
Compression mode : Lossy
Stream size : 59.3 MiB (7%)
Language : English
Default : Yes
Forced : No

Text
ID : 3
Format : UTF-8
Codec ID : S_TEXT/UTF8
Codec ID/Info : UTF-8 Plain Text
Language : English
Default : No
Forced : No

Screenshot:

Sign up via clicking banner and a file link to creat a premium account.

ExtMatrix Download Links

Community.s05.Season.5.Sneak.Peek.1080p.WEB-DL.AAC2.0.H.264.HKD.mkv
Community.S05E01.720p.HDTV.X264-DIMENSION.mkv
Community.S05E02.720p.HDTV.X264-DIMENSION.mkv
Community.S05E03.Basic.Intergluteal.Numismatics.1080p.WEB-DL.DD5.1.H.264-BS.mkv
Community.S05E04.720p.HDTV.X264-DIMENSION.mkv
Community.S05E05.720p.HDTV.X264-DIMENSION.mkv

Click Here for downloading links Community S05E01 S05E02 P1080p WEB-DL DD5 1 H 264 HKD

Click Here for downloading links Community S05E04 P1080p WEB-DL DD5 1 H 264 HKD