Useful link:

IMDB

TVRAGE

TVDB

MediaInfo:
General
Complete name : Constantine.S01E01.WEBRip-topkek.mp4
Format : MPEG-4
Format profile : QuickTime
Codec ID : qt
File size : 782 MiB
Duration : 44mn 57s
Overall bit rate mode : Variable
Overall bit rate : 2 433 Kbps

Video
ID : 1
Format : MPEG-4 Visual
Format profile : Simple@L3
Format settings, BVOP : No
Format settings, QPel : No
Format settings, GMC : No warppoints
Format settings, Matrix : Default (H.263)
Codec ID : 20
Duration : 44mn 57s
Bit rate mode : Variable
Bit rate : 2 298 Kbps
Maximum bit rate : 5 000 Kbps
Width : 720 pixels
Height : 480 pixels
Display aspect ratio : 3:2
Frame rate mode : Constant
Frame rate : 29.970 fps
Standard : NTSC
Color space : YUV
Chroma subsampling : 4:2:0
Bit depth : 8 bits
Scan type : Progressive
Compression mode : Lossy
Bits/(Pixel*Frame) : 0.222
Stream size : 739 MiB (94%)
Writing library : Lavc54.92.100
Language : English

Audio
ID : 2
Format : AAC
Format/Info : Advanced Audio Codec
Format profile : LC
Codec ID : 40
Duration : 44mn 57s
Bit rate mode : Variable
Bit rate : 128 Kbps
Maximum bit rate : 5 000 Kbps
Channel(s) : 6 channels
Channel positions : Front: L C R, Side: L R, LFE
Sampling rate : 44.1 KHz
Compression mode : Lossy
Stream size : 41.2 MiB (5%)
Language : English

Screenshot:

Sign up via clicking banner and a file link to creat a premium account.Then Get the access to protected links.

ExtMatrix Download Links

Constantine.S01E01.WEBRip-topkek.mp4
Constantine S01 Trailer (1080p HD).mkv
Constantine S01 On the Set (1080p H.mkv

Click Here for downloading links Constantine S01E01 1080p WEB-DL DD5 1 H 264 HKD

Click Here for downloading links Constantine S01E02 1080p WEB-DL DD5 1 H 264 HKD

Click Here for downloading links Constantine S01E03 1080p WEB-DL DD5 1 H 264 HKD

Click Here for downloading links Constantine S01E04 1080p WEB-DL DD5 1 H 264 HKD

Click Here for downloading links Constantine S01E05 1080p WEB-DL DD5 1 H 264 HKD

Click Here for downloading links Constantine S01E06 1080p WEB-DL DD5 1 H 264 HKD

Click Here for downloading links Constantine S01E07 1080p WEB-DL DD5 1 H 264 HKD

Click Here for downloading links Constantine S01E08 1080p WEB-DL DD5 1 H 264 HKD

Click Here for downloading links Constantine S01E09 1080p WEB-DL DD5 1 H 264 HKD

Click Here for downloading links Constantine S01E10 1080p WEB-DL DD5 1 H 264 HKD

Click Here for downloading links Constantine S01E11 1080p WEB-DL DD5 1 H 264 HKD