Series Info
# of Seasons: 5
Country: US
Air Day: Tuesday
Air Time: 8:30 pm
First Aired: 2009-09-23
Rating: TV-PG
Series Status: Returning Series
Runtime: 30 Minutes
Network: ABC
Classification: Scripted
TVDB Rating: 8.1
External Links:

General
Complete name : Cougar.Town.S01E08.Two.Gunslingers.720p.WEB-DL.H264.AC3.5.1.mkv
Format : Matroska
Format version : Version 2
File size : 709 MiB
Duration : 20mn 51s
Overall bit rate : 4 750 Kbps

Video
ID : 1
Format : AVC
Format/Info : Advanced Video Codec
Format profile : High@L3.1
Format settings, CABAC : No
Format settings, ReFrames : 2 frames
Codec ID : V_MPEG4/ISO/AVC
Duration : 20mn 51s
Bit rate : 4 271 Kbps
Width : 1 280 pixels
Height : 720 pixels
Display aspect ratio : 16:9
Frame rate mode : Constant
Frame rate : 25.000 fps
Color space : YUV
Chroma subsampling : 4:2:0
Bit depth : 8 bits
Scan type : Progressive
Bits/(Pixel*Frame) : 0.185
Stream size : 637 MiB (90%)
Default : Yes
Forced : No
Color primaries : BT.709
Transfer characteristics : BT.709
Matrix coefficients : BT.709

Audio
ID : 2
Format : AC-3
Format/Info : Audio Coding 3
Mode extension : CM (complete main)
Format settings, Endianness : Big
Codec ID : A_AC3
Duration : 20mn 51s
Bit rate mode : Constant
Bit rate : 384 Kbps
Channel(s) : 6 channels
Channel positions : Front: L C R, Side: L R, LFE
Sampling rate : 48.0 KHz
Bit depth : 16 bits
Compression mode : Lossy
Stream size : 57.3 MiB (8%)
Language : English
Default : No
Forced : No

Cougar.Town.S01E01.Pilot.720p.WEB-DL.H264.AAC.2.0.mkv
Cougar.Town.S01E02.Into.The.Great.Wide.Open.720p.WEB-DL.H264.AC3.5.1.mkv
Cougar.Town.S01E03.Dont.Do.Me.Like.That.720p.WEB-DL.H264.AC3.5.1.mkv
Cougar.Town.S01E04.I.Won.t.Back.Down.720p.WEB-DL.H264.AC3.5.1.mkv
Cougar.Town.S01E05.You.Wreck.Me.720p.WEB-DL.H264.AC3.5.1.mkv
Cougar.Town.S01E06.A.Woman.In.Love.(It.s.Not.Me).720p.WEB-DL.H264.AC3.5.1.mkv
Cougar.Town.S01E07.Don.t.Come.Around.Here.No.More.720p.WEB-DL.H264.AC3.5.1.mkv
Cougar.Town.S01E08.Two.Gunslingers.720p.WEB-DL.H264.AC3.5.1.mkv
Cougar.Town.S01E09.Here.Comes.My.Girl.720p.WEB-DL.H264.AC3.5.1.mkv
Cougar.Town.S01E10.Mystery.Man.720p.WEB-DL.H264.AC3.5.1.mkv
Cougar.Town.S01E11.Rhino.Skin.720p.WEB-DL.H264.AC3.5.1.mkv
Cougar.Town.S01E12.Scare.Easy.720p.WEB-DL.H264.AC3.5.1.mkv
Cougar.Town.S01E13.Stop.Dragging.My.Heart.Around.720p.WEB-DL.H264.AC3.5.1.mkv
Cougar.Town.S01E14.All.The.Wrong.Reasons.720p.WEB-DL.H264.AC3.5.1.mkv
Cougar.Town.S01E15.When.A.Kid.Goes.Bad.720p.WEB-DL.H264.AC3.5.1.mkv
Cougar.Town.S01E16.What.Are.You.Doin..In.My.Life.720p.WEB-DL.H264.AC3.5.1.mkv
Cougar.Town.S01E17.Counting.On.You.720p.WEB-DL.H264.AC3.5.1.mkv
Cougar.Town.S01E18.Turn.This.Car.Around.720p.WEB-DL.H264.AC3.5.1.mkv
Cougar.Town.S01E19.Everything.Man.720p.WEB-DL.H264.AC3.5.1.mkv
Cougar.Town.S01E20.Wake.Up.Time.720p.WEB-DL.H264.AC3.5.1.mkv
Cougar.Town.S01E21.Letting.You.Go.720p.WEB-DL.H264.AC3.5.1.mkv
Cougar.Town.S01E22.Feel.A.Whole.Lot.Better.720p.WEB-DL.H264.AC3.5.1.mkv
Cougar.Town.S01E23.Breakdown.720p.WEB-DL.H264.AC3.5.1.mkv
Cougar.Town.S01E24.Finding.Out.720p.WEB-DL.H264.AC3.5.1.mkv

Cougar.Town.S03.720p.WEB-DL.DD5.1.h.264-NTb
Cougar.Town.S03E01.Aint.Love.Strange.720p.WEB-DL.DD5.1.h.264-NTb.mkv
Cougar.Town.S03E02.A.Mind.With.a.Heart.of.Its.Own.720p.WEB-DL.DD5.1.h.264-NTb.mkv
Cougar.Town.S03E03.Lovers.Touch.720p.WEB-DL.DD5.1.h.264-NTb.mkv
Cougar.Town.S03E04.Full.Moon.Fever.720p.WEB-DL.DD5.1.h.264-NTb.mkv
Cougar.Town.S03E05.A.One.Story.Town.720p.WEB-DL.DD5.1.h.264-NTb.mkv
Cougar.Town.S03E06.Something.Big.720p.WEB-DL.DD5.1.h.264-NTb.mkv
Cougar.Town.S03E07.You.Can.Still.Change.Your.Mind.720p.WEB-DL.DD5.1.h.264-NTb.mkv
Cougar.Town.S03E08.Ways.to.Be.Wicked.720p.WEB-DL.DD5.1.h.264-NTb.mkv
Cougar.Town.S03E09.Money.Becomes.King.720p.WEB-DL.DD5.1.h.264-NTb.mkv
Cougar.Town.S03E10.Southern.Accents.720p.WEB-DL.DD5.1.h.264-NTb.mkv
Cougar.Town.S03E11.Down.South.720p.WEB-DL.DD5.1.h.264-NTb.mkv
Cougar.Town.S03E12.Square.One.720p.WEB-DL.DD5.1.h.264-NTb.mkv
Cougar.Town.S03E13.Itll.All.Work.Out.720p.WEB-DL.DD5.1.h.264-NTb.mkv
Cougar.Town.S03E14.My.Life.720p.WEB-DL.DD5.1.h.264-NTb.mkv
Cougar.Town.S03E15.Your.World.720p.WEB-DL.DD5.1.h.264-NTb.mkv
Screenshot:

Sign up via clicking banner and a file link to creat a premium account.Then Get the access to protected links.

ExtMatrix Download Links

Cougar.Town.S01E01.Pilot.720p.WEB-DL.H264.AAC.2.0.mkv

Click Here for downloading links Cougar Town S01 S03 720p WEB-DL DD5.1 H.264 M794 LP MMI EbP NTb