External Links: Criminal.Minds.S01-S06.WEB-DL.DD5.1.H.264


General
Complete name : Criminal.Minds.S09E01.The.Inspiration.1080p.WEB-DL.DD5.1.H.264-Ctrl HD.mkv
Format : Matroska
Format version : Version 2
File size : 1.65 GiB
Duration : 41mn 48s
Overall bit rate : 5 632 Kbps

Video
ID : 1
Format : AVC
Format/Info : Advanced Video Codec
Format profile : High@L4.0
Format settings, CABAC : Yes
Format settings, ReFrames : 4 frames
Codec ID : V_MPEG4/ISO/AVC
Duration : 41mn 48s
Bit rate : 5 136 Kbps
Width : 1 920 pixels
Height : 1 080 pixels
Display aspect ratio : 16:9
Frame rate mode : Constant
Frame rate : 23.976 fps
Color space : YUV
Chroma subsampling : 4:2:0
Bit depth : 8 bits
Scan type : Progressive
Bits/(Pixel*Frame) : 0.103
Stream size : 1.50 GiB (91%)
Language : English
Default : Yes
Forced : No
Color primaries : BT.709
Transfer characteristics : BT.709
Matrix coefficients : BT.709

Audio
ID : 2
Format : AC-3
Format/Info : Audio Coding 3
Mode extension : CM (complete main)
Format settings, Endianness : Big
Codec ID : A_AC3
Duration : 41mn 48s
Bit rate mode : Constant
Bit rate : 384 Kbps
Channel(s) : 6 channels
Channel positions : Front: L C R, Side: L R, LFE
Sampling rate : 48.0 KHz
Bit depth : 16 bits
Compression mode : Lossy
Stream size : 115 MiB (7%)
Language : English
Default : Yes
Forced : No

Text
ID : 3
Format : UTF-8
Codec ID : S_TEXT/UTF8
Codec ID/Info : UTF-8 Plain Text
Title : CC
Language : English
Default : No
Forced : No

Criminal.Minds.S09.Season.8.Recap.1080p.WEB-DL.AAC2.0.H.264-HKD.mkv 185.96 MB
Screenshot:

Sign up via clicking banner and a file link to creat a premium account.Then Get the access to protected links.

ExtMatrix Download Links

Criminal.Minds.S09.Season.8.Recap.1080p.WEB-DL.AAC2.0.H.264-HKD.mkv
Criminal.Minds.S09E01.The.Inspiration.1080p.WEB-DL.DD5.1.H.264-Ctrl HD.mkv
Criminal.Minds.S09E02.The.Inspired.1080p.WEB-DL.DD5.1.H.264-CtrlHD.mkv
Criminal.Minds.S09E01.The.Inspiration.720p.WEB-DL.DD5.1.H.264-CtrlHD.mkv
Criminal.Minds.S09E02.The.Inspired.720p.WEB-DL.DD5.1.H.264-CtrlHD.mkv
Criminal.Minds.S09E03.Final.Shot.720p.WEB-DL.DD5.1.H.264-CtrlHD.mkv
Criminal.Minds.S09E03.Final.Shot.1080p.WEB-DL.DD5.1.H.264-CtrlHD.mkv
Criminal.Minds.S09E04.To.Bear.Witness.720p.WEB-DL.DD5.1.H.264-BS.mkv
Criminal.Minds.S09E04.To.Bear.Witness.1080p.WEB-DL.DD5.1.H.264-CtrlHD.mkv
Criminal.Minds.S09E05.Route.66.720p.WEB-DL.DD5.1.H.264-CtrlHD.mkv
Criminal.Minds.S09E05.Route.66.1080p.WEB-DL.DD5.1.H.264-CtrlHD.mkv
Criminal.Minds.S09E06.In.the.Blood.720p.WEB-DL.DD5.1.H.264-CtrlHD.mkv
Criminal.Minds.S09E06.In.the.Blood.1080p.WEB-DL.DD5.1.H.264-CtrlHD.mkv
Criminal.Minds.S09E07.Gatekeeper.720p.WEB-DL.DD5.1.H.264-CtrlHD.mkv
Criminal.Minds.S09E07.Gatekeeper.1080p.WEB-DL.DD5.1.H.264-CtrlHD.mkv
Criminal.Minds.S09E08.The.Return.720p.WEB-DL.DD5.1.H.264-CtrlHD.mkv
Criminal.Minds.S09E08.The.Return.1080p.WEB-DL.DD5.1.H.264-CtrlHD.mkv
Criminal.Minds.S09E09.Strange.Fruit.720p.WEB-DL.DD5.1.H.264-CtrlHD.mkv
Criminal.Minds.S09E10.The.Caller.720p.WEB-DL.DD5.1.H.264-CtrlHD.mkv
Criminal.Minds.S09E11.Bully.720p.WEB-DL.DD5.1.H.264-CtrlHD.mkv
Criminal.Minds.S09E11.Bully.1080p.WEB-DL.DD5.1.H.264-CtrlHD.mkv
Criminal.Minds.S09E12.The.Black.Queen.720p.WEB-DL.DD5.1.H.264-CtrlHD.mkv
Criminal.Minds.S09E12.The.Black.Queen.1080p.WEB-DL.DD5.1.H.264-CtrlHD.mkv

Click Here for downloading links Criminal Minds S09E09 1080p WEB-DL DD5 1 H 264 HKD

Click Here for downloading links Criminal Minds S09E10 1080p WEB-DL DD5 1 H 264 HKD