Big thanks to An old Friend :)

Useful link:

IMDB

TVRAGE

TVDB

MediaInfo:
General
Complete name : CSI.Miami.S03E18.Game.Over.1080p.WEB-DL.DD5.1.H.264.HKD.mkv
Format : Matroska
Format version : Version 4 / Version 2
File size : 1.64 GiB
Duration : 44mn 18s
Overall bit rate : 5 313 Kbps
Movie name : ripped by CrazyHDSource.com

Video
ID : 1
Format : AVC
Format/Info : Advanced Video Codec
Format profile : High@L4.0
Format settings, CABAC : Yes
Format settings, ReFrames : 4 frames
Codec ID : V_MPEG4/ISO/AVC
Duration : 44mn 18s
Bit rate : 4 823 Kbps
Width : 1 920 pixels
Height : 1 080 pixels
Display aspect ratio : 16:9
Frame rate mode : Constant
Frame rate : 23.976 fps
Color space : YUV
Chroma subsampling : 4:2:0
Bit depth : 8 bits
Scan type : Progressive
Bits/(Pixel*Frame) : 0.097
Stream size : 1.49 GiB (91%)
Title : ripped by CrazyHDSource.com
Language : English
Default : Yes
Forced : No
Color primaries : BT.709
Transfer characteristics : BT.709
Matrix coefficients : BT.709

Audio
ID : 2
Format : AC-3
Format/Info : Audio Coding 3
Mode extension : CM (complete main)
Format settings, Endianness : Big
Codec ID : A_AC3
Duration : 44mn 18s
Bit rate mode : Constant
Bit rate : 384 Kbps
Channel(s) : 6 channels
Channel positions : Front: L C R, Side: L R, LFE
Sampling rate : 48.0 KHz
Bit depth : 16 bits
Compression mode : Lossy
Stream size : 122 MiB (7%)
Language : English
Default : Yes
Forced : No

Text
ID : 3
Format : UTF-8
Codec ID : S_TEXT/UTF8
Codec ID/Info : UTF-8 Plain Text
Language : English
Default : No
Forced : No

Screenshot:

Sign up via clicking banner and a file link to creat a premium account.Then Get the access to protected links.

ExtMatrix Download Links

CSI.Miami.S01E01.Golden.Parachute.1080p.WEB-DL.DD5.1.H.264.HKD.mkv
CSI.Miami.S01E02.Losing.Face.1080p.WEB-DL.DD5.1.H.264.HKD.mkv
CSI.Miami.S01E03.Wet.Foot.Dry.Foot.1080p.WEB-DL.DD5.1.H.264.HKD.mkv
CSI.Miami.S01E04.Just.One.Kiss.1080p.WEB-DL.DD5.1.H.264.HKD.mkv

Click Here for downloading links CSI Miami 2002 S01 Complete Season 1080p WEB-DL DD5 1 H 264 HKD

Click Here for downloading links CSI Miami 2002 S02 Complete Season 1080p WEB-DL DD5 1 H 264 HKD

Click Here for downloading links CSI Miami 2002 S03 Complete Season 1080p WEB-DL DD5 1 H 264 HKD

Click Here for downloading links CSI Miami 2002 S04 Complete Season 1080p WEB-DL DD5 1 H 264 HKD

Click Here for downloading links CSI Miami 2002 S05 Complete Season 1080p WEB-DL DD5 1 H 264 HKD

Click Here for downloading links CSI Miami 2002 S06 Complete Season 1080p WEB-DL DD5 1 H 264 HKD

Click Here for downloading links CSI Miami 2002 S07 Complete Season 1080p WEB-DL DD5 1 H 264 HKD

Click Here for downloading links CSI Miami 2002 S08 Complete Season 1080p WEB-DL DD5 1 H 264 HKD

Click Here for downloading links CSI Miami 2002 S09 Complete Season 1080p WEB-DL DD5 1 H 264 HKD

Click Here for downloading links CSI Miami 2002 S10 Complete Season 1080p WEB-DL DD5 1 H 264 HKD