External Links:

General
Complete name : Da Vinci’s Demons S02E01 720p HDTV DD5.1 x264.mkv
Format : Matroska
Format version : Version 4 / Version 2
File size : 2.13 GiB
Duration : 57mn 43s
Overall bit rate : 5 283 Kbps

Video
ID : 1
Format : AVC
Format/Info : Advanced Video Codec
Format profile : High@L4.1
Format settings, CABAC : Yes
Format settings, ReFrames : 9 frames
Codec ID : V_MPEG4/ISO/AVC
Duration : 57mn 43s
Bit rate : 4 794 Kbps
Width : 1 276 pixels
Height : 720 pixels
Display aspect ratio : 16:9
Frame rate mode : Constant
Frame rate : 23.976 fps
Color space : YUV
Chroma subsampling : 4:2:0
Bit depth : 8 bits
Scan type : Progressive
Bits/(Pixel*Frame) : 0.218
Stream size : 1.93 GiB (91%)
Writing library : x264 core 142 r2389 956c8d8
Encoding settings : cabac=1 / ref=9 / deblock=1:-3:-3 / analyse=0x3:0x113 / me=umh / subme=9 /

Audio
ID : 2
Format : AC-3
Format/Info : Audio Coding 3
Mode extension : CM (complete main)
Format settings, Endianness : Big
Codec ID : A_AC3
Duration : 57mn 43s
Bit rate mode : Constant
Bit rate : 384 Kbps
Channel(s) : 6 channels
Channel positions : Front: L C R, Side: L R, LFE
Sampling rate : 48.0 KHz
Bit depth : 16 bits
Compression mode : Lossy
Stream size : 159 MiB (7%)
Language : English
Default : Yes
Forced : No

Text
ID : 3
Format : UTF-8
Codec ID : S_TEXT/UTF8
Codec ID/Info : UTF-8 Plain Text
Title : DaVinci’s Demons
Language : English
Default : Yes
Forced : No
Screenshot:

 

Sign up via clicking banner and a file link to creat a premium account.

ExtMatrix Download Links

Da.Vinci.s.Demons.S02E01.The.Blood.of.Man.1080p.WEB-DL.DD5.1.H.264-BS.mkv
Da.Vinci.s.Demons.S02E02.The.Blood.of.Brothers.1080p.WEB-DL.DD5.1.H.264-BS.mkv
Da.Vinci.s.Demons.S02E03.The.Voyage.of.the.Damned.1080p.WEB-DL.DD5.1.H.264-BS.mkv
Da.Vinci.s.Demons.S02E03.The.Voyage.of.the.Damned.720p.WEB-DL.DD5.1.H.264-BS.mkv
Da.Vinci.s.Demons.S02E04.The.Ends.of.the.Earth.1080p.WEB-DL.DD5.1.H.264-BS.mkv
Da.Vinci.s.Demons.S02E05.The.Sun.and.the.Moon.1080p.WEB-DL.DD5.1.H.264-BS.mkv
Da.Vinci.s.Demons.S02E06.The.Rope.of.the.Dead.1080p.WEB-DL.DD5.1.H.264-BS.mkv
Da.Vinci.s.Demons.S02E07.The.Vault.of.Heaven.1080p.WEB-DL.DD5.1.H.264-BS.mkv
Da.Vinci.s.Demons.S02E08.The.Fall.From.Heaven.1080p.WEB-DL.DD5.1.H.264-BS.mkv