Useful link:

IMDB

TVRAGE

TVDB

MediaInfo:
General
Complete name : Extant.S01E01.Re-Entry.1080p.WEB-DL.DD5.1.H.264-ECI.mkv
Format : Matroska
Format version : Version 4 / Version 2
File size : 1.54 GiB
Duration : 41mn 7s
Overall bit rate : 5 360 Kbps

Video
ID : 1
Format : AVC
Format/Info : Advanced Video Codec
Format profile : High@L4.0
Format settings, CABAC : Yes
Format settings, ReFrames : 4 frames
Codec ID : V_MPEG4/ISO/AVC
Duration : 41mn 7s
Bit rate : 4 869 Kbps
Width : 1 920 pixels
Height : 1 080 pixels
Display aspect ratio : 16:9
Frame rate mode : Constant
Frame rate : 23.976 fps
Color space : YUV
Chroma subsampling : 4:2:0
Bit depth : 8 bits
Scan type : Progressive
Bits/(Pixel*Frame) : 0.098
Stream size : 1.40 GiB (91%)
Language : English
Default : Yes
Forced : No
Color primaries : BT.709
Transfer characteristics : BT.709
Matrix coefficients : BT.709

Audio
ID : 2
Format : AC-3
Format/Info : Audio Coding 3
Mode extension : CM (complete main)
Format settings, Endianness : Big
Codec ID : A_AC3
Duration : 41mn 7s
Bit rate mode : Constant
Bit rate : 384 Kbps
Channel(s) : 6 channels
Channel positions : Front: L C R, Side: L R, LFE
Sampling rate : 48.0 KHz
Bit depth : 16 bits
Compression mode : Lossy
Stream size : 113 MiB (7%)
Language : English
Default : Yes
Forced : No

Text
ID : 3
Format : UTF-8
Codec ID : S_TEXT/UTF8
Codec ID/Info : UTF-8 Plain Text
Language : English
Default : No
Forced : No

Screenshot:

Sign up via clicking banner and a file link to creat a premium account.Then Get the access to protected links.

ExtMatrix Download Links

Extant.S01E01.Re-Entry.1080p.WEB-DL.DD5.1.H.264-ECI.mkv
Extant.S01E02.Extinct.1080p.WEB-DL.DD5.1.H.264-ECI.mkv
Extant.S01E03.Wish.You.Were.Here.1080p.WEB-DL.DD5.1.H.264-ECI.mkv
Extant.S01E04.Shelter.1080p.WEB-DL.DD5.1.H.264-ECI.mkv
Extant.S01E05.What.On.Earth.Is.Wrong.1080p.WEB-DL.DD5.1.H.264-ECI.mkv
Extant.S01E06.Nightmares.1080p.WEB-DL.DD5.1.H.264-ECI.mkv
Extant.S01E07.More.In.Heaven.And.Earth.1080p.WEB-DL.DD5.1.H.264-ECI.mkv
Extant.S01E08.Incursion.1080p.WEB-DL.DD5.1.H.264-ECI.mkv