External Links:

Source:Game of Thrones S04E01 1080i HDTV MPEG2 DD5.1 CtrlHD

General
Complete name : Game of Thrones S04E01 720p HDTV DD5.1 x264.mkv
Format : Matroska
Format version : Version 4 / Version 2
File size : 1.55 GiB
Duration : 58mn 40s
Overall bit rate : 3 785 Kbps

Video
ID : 1
Format : AVC
Format/Info : Advanced Video Codec
Format profile : High@L4.1
Format settings, CABAC : Yes
Format settings, ReFrames : 9 frames
Codec ID : V_MPEG4/ISO/AVC
Duration : 58mn 40s
Bit rate : 3 325 Kbps
Width : 1 280 pixels
Height : 714 pixels
Display aspect ratio : 16:9
Frame rate mode : Constant
Frame rate : 23.976 fps
Color space : YUV
Chroma subsampling : 4:2:0
Bit depth : 8 bits
Scan type : Progressive
Bits/(Pixel*Frame) : 0.152
Stream size : 1.36 GiB (88%)
Writing library : x264 core 142 r2389 956c8d8
Encoding settings : cabac=1 / ref=9 / deblock=1:-3:-3 / analyse=0x3:0x133 / me=umh / subme=9 /

Audio
ID : 2
Format : AC-3
Format/Info : Audio Coding 3
Mode extension : CM (complete main)
Format settings, Endianness : Big
Codec ID : A_AC3
Duration : 58mn 40s
Bit rate mode : Constant
Bit rate : 384 Kbps
Channel(s) : 6 channels
Channel positions : Front: L C R, Side: L R, LFE
Sampling rate : 48.0 KHz
Bit depth : 16 bits
Compression mode : Lossy
Delay relative to video : 30ms
Stream size : 161 MiB (10%)
Language : English
Default : Yes
Forced : No

Text
ID : 3
Format : UTF-8
Codec ID : S_TEXT/UTF8
Codec ID/Info : UTF-8 Plain Text
Language : English
Default : Yes
Forced : No

Sign up via clicking banner and a file link to creat a premium account.

ExtMatrix Download Links

http://crazyhdsource.com/game-of-thrones-s04e02-1080i-hdtv-mpeg2-dd51-ctrlhd.html