Includes itunes extras

Useful link:

MediaInfo:
General
Complete name : Girl.Most.Likely.2012.1080p.WEB-DL.DD5.1.H.264.HKD.mkv
Format : Matroska
Format version : Version 4 / Version 2
File size : 4.10 GiB
Duration : 1h 43mn
Overall bit rate : 5 686 Kbps
Movie name : ripped by CrazyHDSource.com

Video
ID : 1
Format : AVC
Format/Info : Advanced Video Codec
Format profile : High@L4.0
Format settings, CABAC : Yes
Format settings, ReFrames : 4 frames
Codec ID : V_MPEG4/ISO/AVC
Duration : 1h 43mn
Bit rate : 5 189 Kbps
Width : 1 912 pixels
Height : 1 072 pixels
Display aspect ratio : 16:9
Frame rate mode : Constant
Frame rate : 23.976 fps
Color space : YUV
Chroma subsampling : 4:2:0
Bit depth : 8 bits
Scan type : Progressive
Bits/(Pixel*Frame) : 0.106
Stream size : 3.74 GiB (91%)
Title : ripped by CrazyHDSource.com
Language : English
Default : Yes
Forced : No
Color primaries : BT.709
Transfer characteristics : BT.709
Matrix coefficients : BT.709

Audio
ID : 2
Format : AC-3
Format/Info : Audio Coding 3
Mode extension : CM (complete main)
Format settings, Endianness : Big
Codec ID : A_AC3
Duration : 1h 43mn
Bit rate mode : Constant
Bit rate : 384 Kbps
Channel(s) : 6 channels
Channel positions : Front: L C R, Side: L R, LFE
Sampling rate : 48.0 KHz
Bit depth : 16 bits
Compression mode : Lossy
Stream size : 283 MiB (7%)
Language : English
Default : Yes
Forced : No

Text
ID : 3
Format : UTF-8
Codec ID : S_TEXT/UTF8
Codec ID/Info : UTF-8 Plain Text
Language : English
Default : No
Forced : No

Menu
00:00:00.000 : en:Chapter 1
00:06:19.000 : en:Chapter 2
00:13:44.000 : en:Chapter 3
00:19:38.000 : en:Chapter 4
00:26:32.000 : en:Chapter 5
00:33:54.000 : en:Chapter 6
00:41:26.000 : en:Chapter 7
00:49:47.000 : en:Chapter 8
00:58:39.000 : en:Chapter 9
01:02:30.000 : en:Chapter 10
01:10:08.000 : en:Chapter 11
01:17:53.000 : en:Chapter 12
01:23:11.000 : en:Chapter 13
01:29:17.000 : en:Chapter 14
01:35:24.000 : en:Chapter 15

Screenshot:

Sign up via clicking banner and a file link to creat a premium account.Then Get the access to protected links.

ExtMatrix Download Links

http://crazyhdsource.com/girl-most-likely-2012-1080p-bluray-x264-dtsfgt.html