External Links:   

General
Complete name : Grimm.S03E01.1080p.WEB-DL.DD5.1.H.264.HKD.mkv
Format : Matroska
Format version : Version 4 / Version 2
File size : 1.80 GiB
Duration : 46mn 8s
Overall bit rate : 5 574 Kbps
Movie name : ripped by CrazyHDSource.com

Video
ID : 1
Format : AVC
Format/Info : Advanced Video Codec
Format profile : High@L4.0
Format settings, CABAC : Yes
Format settings, ReFrames : 5 frames
Codec ID : V_MPEG4/ISO/AVC
Duration : 46mn 8s
Bit rate : 5 079 Kbps
Width : 1 440 pixels
Height : 1 080 pixels
Display aspect ratio : 16:9
Frame rate mode : Constant
Frame rate : 29.970 fps
Color space : YUV
Chroma subsampling : 4:2:0
Bit depth : 8 bits
Scan type : Progressive
Bits/(Pixel*Frame) : 0.109
Stream size : 1.64 GiB (91%)
Title : ripped by CrazyHDSource.com
Language : English
Default : Yes
Forced : No
Color primaries : BT.709
Transfer characteristics : BT.709
Matrix coefficients : BT.709

Audio
ID : 2
Format : AC-3
Format/Info : Audio Coding 3
Mode extension : CM (complete main)
Format settings, Endianness : Big
Codec ID : A_AC3
Duration : 46mn 8s
Bit rate mode : Constant
Bit rate : 384 Kbps
Channel(s) : 6 channels
Channel positions : Front: L C R, Side: L R, LFE
Sampling rate : 48.0 KHz
Bit depth : 16 bits
Compression mode : Lossy
Stream size : 127 MiB (7%)
Language : English
Default : Yes
Forced : No

Text
ID : 3
Format : UTF-8
Codec ID : S_TEXT/UTF8
Codec ID/Info : UTF-8 Plain Text
Language : English
Default : No
Forced : No

Screenshot:

Sign up via clicking banner and a file link to creat a premium account.Then Get the access to protected links.

ExtMatrix Download Links

Grimm.S03.Monroe.and.Rosalee.Moments.720p.WEB-DL.AAC2.0.H.264.HKD.mkv
Grimm.S03E02.Ptzd.720p.WEB-DL.DD5.1.H.264-ECI.mkv
Grimm.S03E03.A.Dish.Best.Served.Cold.720p.WEB-DL.DD5.1.H.264-ECI.mkv
Grimm.S03E04.One.Night.Stand.720p.WEB-DL.DD5.1.H.264-ECI.mkv
Grimm.S03E05.El.Cucuy.720p.WEB-DL.DD5.1.H.264-ECI.mkv
Grimm.S03E06.Stories.We.Tell.Our.Young.720p.WEB-DL.DD5.1.H.264-ECI.mkv
Grimm.S03E06.1080p.WEB-DL.DD5.1.H.264.HKD.part1.rar
Grimm.S03E06.1080p.WEB-DL.DD5.1.H.264.HKD.part2.rar
Grimm.S03E07.Cold.Blooded.720p.WEB-DL.DD5.1.H.264-ECI.mkv
Grimm.S03E08.Twelve.Days.To.Krampus.720p.WEB-DL.DD5.1.H.264-ECI.mkv
Grimm.S03E09.Red.Menace.720p.WEB-DL.DD5.1.H.264-ECI.mkv
Grimm.S03E10.Eyes.of.the.Beholder.720p.WEB-DL.DD5.1.H.264-ECI.mkv
Grimm.S03E11.The.Good.Soldier.720p.WEB-DL.DD5.1.H.264-ECI.mkv

Click Here for downloading links Grimm S03E01 p1080p WEB-DL DD5 1 H 264 HKD

Click Here for downloading links Grimm S03E02 p1080p WEB-DL DD5 1 H 264 HKD

Click Here for downloading links Grimm S03E03 p1080p WEB-DL DD5 1 H 264 HKD

Click Here for downloading links Grimm S03E04 p1080p WEB-DL DD5 1 H 264 HKD

Click Here for downloading links Grimm S03E05 p1080p WEB-DL DD5 1 H 264 HKD

Click Here for downloading links Grimm S03E07 pS03E08 1080p WEB-DL DD5 1 H 264 HKD

Click Here for downloading links Grimm S03E09 p1080p WEB-DL DD5 1 H 264 HKD

Click Here for downloading links Grimm S03E10 p1080p WEB-DL DD5 1 H 264 HKD

Click Here for downloading links Grimm S03E11 p1080p WEB-DL DD5 1 H 264 HKD