Useful link:

MediaInfo:
General
Complete name : Hannah.Arendt.2012.LIMITED.720p.BluRay.x264-GECKOS.mkv
Format : Matroska
Format version : Version 4 / Version 2
File size : 5.45 GiB
Duration : 1h 58mn
Overall bit rate : 6 611 Kbps

Video
ID : 1
Format : AVC
Format/Info : Advanced Video Codec
Format profile : High@L4.1
Format settings, CABAC : Yes
Format settings, ReFrames : 5 frames
Codec ID : V_MPEG4/ISO/AVC
Duration : 1h 58mn
Bit rate : 4 971 Kbps
Nominal bit rate : 5 314 Kbps
Width : 1 280 pixels
Height : 536 pixels
Display aspect ratio : 2.40:1
Frame rate mode : Constant
Frame rate : 24.000 fps
Color space : YUV
Chroma subsampling : 4:2:0
Bit depth : 8 bits
Scan type : Progressive
Bits/(Pixel*Frame) : 0.302
Stream size : 4.10 GiB (75%)
Title : X264
Writing library : x264 core 133 r2334 a3ac64b
Encoding settings : cabac=1 / ref=5 / deblock=1:0:0 / analyse=0x3:0x133 / me=umh / subme=7 / psy=1 /

Audio
ID : 2
Format : DTS
Format/Info : Digital Theater Systems
Mode : 16
Format settings, Endianness : Big
Codec ID : A_DTS
Duration : 1h 58mn
Bit rate mode : Constant
Bit rate : 1 509 Kbps
Channel(s) : 6 channels
Channel positions : Front: L C R, Side: L R, LFE
Sampling rate : 48.0 KHz
Bit depth : 24 bits
Compression mode : Lossy
Stream size : 1.24 GiB (23%)
Title : DTS
Language : English
Default : Yes
Forced : No

Text #1
ID : 3
Format : UTF-8
Codec ID : S_TEXT/UTF8
Codec ID/Info : UTF-8 Plain Text
Title : English
Language : English
Default : No
Forced : No

Text #2
ID : 4
Format : UTF-8
Codec ID : S_TEXT/UTF8
Codec ID/Info : UTF-8 Plain Text
Title : English
Language : English
Default : Yes
Forced : Yes

Menu
00:00:00.000 : en:00:00:00.000
00:07:41.833 : en:00:07:41.833
00:12:52.417 : en:00:12:52.417
00:20:51.917 : en:00:20:51.917
00:28:42.375 : en:00:28:42.375
00:40:14.167 : en:00:40:14.167
00:48:55.458 : en:00:48:55.458
00:55:52.167 : en:00:55:52.167
01:02:46.917 : en:01:02:46.917
01:11:21.000 : en:01:11:21.000
01:18:11.583 : en:01:18:11.583
01:25:49.375 : en:01:25:49.375
01:35:04.292 : en:01:35:04.292
01:47:29.458 : en:01:47:29.458

Screenshot:

Sign up via clicking banner and a file link to creat a premium account.Then Get the access to protected links.

ExtMatrix Download Links

Hannah.Arendt.2012.LIMITED.720p.BluRay.x264-GECKOS.mkv