Series Info
# of Seasons: 3
Country: US
Air Day: Sunday
Air Time: 10:00 PM
First Aired: 2012-01-08
Rating:
Series Status: New Series
Runtime: 30 Minutes
Network: Showtime
Classification: Scripted
TVDB Rating: 9.0
External Links:

 House of Lies (2012)

TV Series  –  tvComedy
7.2

Your rating:

   -/10
Ratings: 7.2/10 from 4,177 users
Reviews: 23 user | 3 critic

 

A subversive, scathing look at a self-loathing management consultant from a top-tier firm. Marty, a highly successful, cutthroat consultant is never above using any means (or anyone) necessary to get his clients the information they want.

 

General
Complete name : House.of.Lies.S02E12.Til.Death.Do.Us.Part.1080p.WEB-DL.DD5.1.H.264-BS.mkv
Format : Matroska
Format version : Version 2
File size : 1.14 GiB
Duration : 29mn 53s
Overall bit rate : 5 442 Kbps

Video
ID : 1
Format : AVC
Format/Info : Advanced Video Codec
Format profile : High@L4.0
Format settings, CABAC : Yes
Format settings, ReFrames : 4 frames
Format settings, GOP : N=1
Codec ID : V_MPEG4/ISO/AVC
Duration : 29mn 53s
Bit rate : 4 950 Kbps
Width : 1 912 pixels
Height : 1 080 pixels
Display aspect ratio : 16:9
Frame rate mode : Constant
Frame rate : 23.976 fps
Color space : YUV
Chroma subsampling : 4:2:0
Bit depth : 8 bits
Scan type : Progressive
Bits/(Pixel*Frame) : 0.100
Stream size : 1.03 GiB (91%)
Language : English
Default : Yes
Forced : No
Color primaries : BT.709
Transfer characteristics : BT.709
Matrix coefficients : BT.709

Audio
ID : 2
Format : AC-3
Format/Info : Audio Coding 3
Mode extension : CM (complete main)
Format settings, Endianness : Big
Codec ID : A_AC3
Duration : 29mn 53s
Bit rate mode : Constant
Bit rate : 384 Kbps
Channel(s) : 6 channels
Channel positions : Front: L C R, Side: L R, LFE
Sampling rate : 48.0 KHz
Bit depth : 16 bits
Compression mode : Lossy
Stream size : 82.1 MiB (7%)
Language : English
Default : Yes
Forced : No

Text
ID : 3
Format : UTF-8
Codec ID : S_TEXT/UTF8
Codec ID/Info : UTF-8 Plain Text
Language : English
Default : No
Forced : No

File name Size
House.of.Lies.S02E01.Stochasticity.1080p.WEB-DL.DD5.1.H.264-BS.mkv 1.07 GB
House.of.Lies.S02E02.When.Dinosaurs.Ruled.the.Planet.1080p.WEB-DL.DD5.1.H.264-BS.mkv 1.14 GB
House.of.Lies.S02E03.Man-Date.1080p.WEB-DL.DD5.1.H.264-BS.mkv 1.05 GB
House.of.Lies.S02E04.Damonschildren.org.1080p.WEB-DL.DD5.1.H.264-BS.mkv 1.11 GB
House.of.Lies.S02E05.Sincerity.Is.an.Easy.Disguise.in.This.Business.1080p.WEB-DL.DD5.1.H.264-BS.mkv 1.02 GB
House.of.Lies.S02E06.Family.Values.1080p.WEB-DL.DD5.1.H.264-BS.mkv 1.10 GB
House.of.Lies.S02E07.The.Runner.Stumbles.1080p.WEB-DL.DD5.1.H.264-BS.mkv 1.05 GB
House.of.Lies.S02E08.Wonders.of.the.World.1080p.WEB-DL.DD5.1.H.264-BS.mkv 1.14 GB
House.of.Lies.S02E09.Liability.1080p.WEB-DL.DD5.1.H.264-BS.mkv 1.12 GB
House.of.Lies.S02E10.Exit.Strategy.1080p.WEB-DL.DD5.1.H.264-BS.mkv 1.05 GB
House.of.Lies.S02E11.Hostile.Takeover.1080p.WEB-DL.DD5.1.H.264-BS.mkv 1.10 GB
House.of.Lies.S02E12.Til.Death.Do.Us.Part.1080p.WEB-DL.DD5.1.H.264-BS.mkv 1.14 GB
File name Size
House.of.Lies.S02E01.Stochasticity.720p.WEB-DL.DD5.1.H.264-BS.mkv 888.01 MB
House.of.Lies.S02E02.When.Dinosaurs.Ruled.the.Planet.720p.WEB-DL.DD5.1.H.264-BS.mkv 961.88 MB
House.of.Lies.S02E03.Man-Date.720p.WEB-DL.DD5.1.H.264-BS.mkv 907.66 MB
House.of.Lies.S02E04.Damonschildren.org.720p.WEB-DL.DD5.1.H.264-BS.mkv 943.30 MB
House.of.Lies.S02E05.Sincerity.Is.an.Easy.Disguise.in.This.Business.720p.WEB-DL.DD5.1.H.264-BS.mkv 842.34 MB
House.of.Lies.S02E06.Family.Values.720p.WEB-DL.DD5.1.H.264-BS.mkv 905.44 MB
House.of.Lies.S02E07.The.Runner.Stumbles.720p.WEB-DL.DD5.1.H.264-BS.mkv 932.77 MB
House.of.Lies.S02E08.Wonders.of.the.World.720p.WEB-DL.DD5.1.H.264-BS.mkv 901.80 MB
House.of.Lies.S02E09.Liability.720p.WEB-DL.DD5.1.H.264-BS.mkv 951.85 MB
House.of.Lies.S02E10.Exit.Strategy.720p.WEB-DL.DD5.1.H.264-BS.mkv 846.46 MB
House.of.Lies.S02E11.Hostile.Takeover.720p.WEB-DL.DD5.1.H.264-BS.mkv 916.88 MB
House.of.Lies.S02E12.Til.Death.Do.Us.Part.720p.WEB-DL.DD5.1.H.264-BS.mkv 947.04 MB

Screenshot:

 

Sign up via clicking banner and a file link to creat a premium account.

ExtMatrix Download Links

House.of.Lies.S02E01.Stochasticity.720p.WEB-DL.DD5.1.H.264-BS.mkv
House.of.Lies.S02E02.When.Dinosaurs.Ruled.the.Planet.720p.WEB-DL.DD5.1.H.264-BS.mkv
House.of.Lies.S02E03.Man-Date.720p.WEB-DL.DD5.1.H.264-BS.mkv
House.of.Lies.S02E04.Damonschildren.org.720p.WEB-DL.DD5.1.H.264-BS.mkv
House.of.Lies.S02E05.Sincerity.Is.an.Easy.Disguise.in.This.Business.720p.WEB-DL.DD5.1.H.264-BS.mkv
House.of.Lies.S02E06.Family.Values.720p.WEB-DL.DD5.1.H.264-BS.mkv
House.of.Lies.S02E07.The.Runner.Stumbles.720p.WEB-DL.DD5.1.H.264-BS.mkv
House.of.Lies.S02E08.Wonders.of.the.World.720p.WEB-DL.DD5.1.H.264-BS.mkv
House.of.Lies.S02E09.Liability.720p.WEB-DL.DD5.1.H.264-BS.mkv
House.of.Lies.S02E10.Exit.Strategy.720p.WEB-DL.DD5.1.H.264-BS.mkv
House.of.Lies.S02E11.Hostile.Takeover.720p.WEB-DL.DD5.1.H.264-BS.mkv
House.of.Lies.S02E12.Til.Death.Do.Us.Part.720p.WEB-DL.DD5.1.H.264-BS.mkv
House.of.Lies.S02E01.Stochasticity.1080p.WEB-DL.DD5.1.H.264-BS.mkv

Click Here for downloading links House of Lies S02 720p 1080p WEB-DL DD5.1 H.264 BS