Useful link:

MediaInfo:
General
Complete name : House.on.Haunted.Hill.1999.720p.BluRay.x264-DON.mkv
Format : Matroska
Format version : Version 2
File size : 4.37 GiB
Duration : 1h 32mn
Overall bit rate : 6 741 Kbps

Video
ID : 1
Format : AVC
Format/Info : Advanced Video Codec
Format profile : High@L4.1
Format settings, CABAC : Yes
Format settings, ReFrames : 9 frames
Muxing mode : Header stripping
Codec ID : V_MPEG4/ISO/AVC
Duration : 1h 32mn
Bit rate : 6 100 Kbps
Width : 1 280 pixels
Height : 720 pixels
Display aspect ratio : 16:9
Frame rate mode : Constant
Frame rate : 24.000 fps
Color space : YUV
Chroma subsampling : 4:2:0
Bit depth : 8 bits
Scan type : Progressive
Bits/(Pixel*Frame) : 0.276
Stream size : 3.86 GiB (89%)
Writing library : x264 core 84 r1400M 20fa784
Encoding settings : cabac=1 / ref=9 / deblock=1:-3:-3 / analyse=0x3:0x113 / me=umh / subme=9 / psy=1 /

Audio
ID : 2
Format : AC-3
Format/Info : Audio Coding 3
Mode extension : CM (complete main)
Format settings, Endianness : Big
Muxing mode : Header stripping
Codec ID : A_AC3
Duration : 1h 32mn
Bit rate mode : Constant
Bit rate : 640 Kbps
Channel(s) : 6 channels
Channel positions : Front: L C R, Side: L R, LFE
Sampling rate : 48.0 KHz
Bit depth : 16 bits
Compression mode : Lossy
Stream size : 424 MiB (9%)
Language : English
Default : Yes
Forced : No

Screenshot:

Sign up via clicking banner and a file link to creat a premium account.Then Get the access to protected links.

ExtMatrix Download Links

House.on.Haunted.Hill.1999.720p.BluRay.x264-DON.part01.ra
House.on.Haunted.Hill.1999.720p.BluRay.x264-DON.part02.ra
House.on.Haunted.Hill.1999.720p.BluRay.x264-DON.part03.ra
House.on.Haunted.Hill.1999.720p.BluRay.x264-DON.part04.ra
House.on.Haunted.Hill.1999.720p.BluRay.x264-DON.part05.ra
House.on.Haunted.Hill.1999.720p.BluRay.x264-DON.part06.ra
House.on.Haunted.Hill.1999.720p.BluRay.x264-DON.part07.ra
House.on.Haunted.Hill.1999.720p.BluRay.x264-DON.part08.ra
House.on.Haunted.Hill.1999.720p.BluRay.x264-DON.part09.ra
House.on.Haunted.Hill.1999.720p.BluRay.x264-DON.part10.ra