Useful link:

MediaInfo:
General
Complete name : Inherent.Vice.2014.1080p.WEB-DL.DD5.1.H.264.HKD.mkv
Format : Matroska
Format version : Version 4 / Version 2
File size : 6.04 GiB
Duration : 2h 28mn
Overall bit rate : 5 817 Kbps
Movie name : ripped by CrazyHDSource.com

Video
ID : 1
Format : AVC
Format/Info : Advanced Video Codec
Format profile : High@L4.0
Format settings, CABAC : Yes
Format settings, ReFrames : 4 frames
Codec ID : V_MPEG4/ISO/AVC
Duration : 2h 28mn
Bit rate : 5 318 Kbps
Width : 1 912 pixels
Height : 1 032 pixels
Display aspect ratio : 1.85:1
Frame rate mode : Constant
Frame rate : 23.976 fps
Color space : YUV
Chroma subsampling : 4:2:0
Bit depth : 8 bits
Scan type : Progressive
Bits/(Pixel*Frame) : 0.112
Stream size : 5.52 GiB (91%)
Title : ripped by CrazyHDSource.com
Language : English
Default : Yes
Forced : No
Color primaries : BT.709
Transfer characteristics : BT.709
Matrix coefficients : BT.709
Color range : Limited

Audio
ID : 2
Format : AC-3
Format/Info : Audio Coding 3
Mode extension : CM (complete main)
Format settings, Endianness : Big
Codec ID : A_AC3
Duration : 2h 28mn
Bit rate mode : Constant
Bit rate : 384 Kbps
Channel(s) : 6 channels
Channel positions : Front: L C R, Side: L R, LFE
Sampling rate : 48.0 KHz
Bit depth : 16 bits
Compression mode : Lossy
Stream size : 408 MiB (7%)
Language : English
Default : Yes
Forced : No

Text
ID : 3
Format : UTF-8
Codec ID : S_TEXT/UTF8
Codec ID/Info : UTF-8 Plain Text
Language : English
Default : No
Forced : No

Menu
00:00:00.000 : en:1
00:15:58.000 : en:2
00:26:44.000 : en:3
00:42:52.000 : en:4
00:52:25.000 : en:5
01:12:07.000 : en:6
01:30:29.000 : en:7
01:39:07.000 : en:8
01:51:54.000 : en:9
02:11:16.000 : en:10
02:21:48.000 : en:11

Screenshot:

Sign up via clicking banner and a file link to creat a premium account.Then Get the access to protected links.

ExtMatrix Download Links

Inherent.Vice.2014.1080p.WEB-DL.DD5.1.H.264.HKD.part2.rar
Inherent.Vice.2014.1080p.WEB-DL.DD5.1.H.264.HKD.part1.rar
Inherent.Vice.2014.1080p.WEB-DL.DD5.1.H.264.HKD.part6.rar
Inherent.Vice.2014.1080p.WEB-DL.DD5.1.H.264.HKD.part5.rar
Inherent.Vice.2014.1080p.WEB-DL.DD5.1.H.264.HKD.part4.rar
Inherent.Vice.2014.1080p.WEB-DL.DD5.1.H.264.HKD.part3.rar
Inherent.Vice.2014.1080p.WEB-DL.DD5.1.H.264.HKD.part7.rar