Clip (2012)
“Klip” (original title)


Useful link:

MediaInfo:
General
Complete name : Klip.2012.720p.Bluray.DD2.0.×264-EucHD.mkv
Format : Matroska
Format version : Version 2
File size : 1.85 GiB
Duration : 1h 38mn
Overall bit rate : 2 688 Kbps

Video
ID : 1
Format : AVC
Format/Info : Advanced Video Codec
Format profile : High@L4.0
Format settings, CABAC : Yes
Format settings, ReFrames : 9 frames
Codec ID : V_MPEG4/ISO/AVC
Duration : 1h 38mn
Bit rate : 2 443 Kbps
Width : 1 280 pixels
Height : 612 pixels
Display aspect ratio : 2.092
Frame rate mode : Constant
Frame rate : 25.000 fps
Color space : YUV
Chroma subsampling : 4:2:0
Bit depth : 8 bits
Scan type : Progressive
Bits/(Pixel*Frame) : 0.125
Stream size : 1.68 GiB (91%)
Writing library : x264 core 120 r2164 da19765
Encoding settings : cabac=1 / ref=9 / deblock=1:0:0 / analyse=0x3:0x133 / me=umh / subme=10 / psy=1 /

Audio
ID : 2
Format : AC-3
Format/Info : Audio Coding 3
Mode extension : CM (complete main)
Format settings, Endianness : Big
Codec ID : A_AC3
Duration : 1h 38mn
Bit rate mode : Constant
Bit rate : 192 Kbps
Channel(s) : 2 channels
Channel positions : Front: L R
Sampling rate : 48.0 KHz
Bit depth : 16 bits
Compression mode : Lossy
Stream size : 135 MiB (7%)
Language : Serbian
Default : Yes
Forced : No

Screenshot:

Sign up via clicking banner and a file link to creat a premium account.Then Get the access to protected links.

ExtMatrix Download Links

Klip 2012 720p Bluray DD2.0 x264 EucHD1.srt
Klip 2012 720p Bluray DD2.0 x264 EucHD2.srt
Klip.2012.720p.Bluray.DD2.0.x264-EucHD.mkv