External Links:

General
Complete name : Klondike.2014.S01E01.Part.One.720p.WEB-DL.DD5.1.H.264-BS.mkv
Format : Matroska
Format version : Version 2
File size : 2.94 GiB
Duration : 1h 35mn
Overall bit rate : 4 382 Kbps

Video
ID : 1
Format : AVC
Format/Info : Advanced Video Codec
Format profile : High@L3.1
Format settings, CABAC : No
Format settings, ReFrames : 2 frames
Format settings, GOP : N=1
Codec ID : V_MPEG4/ISO/AVC
Duration : 1h 35mn
Bit rate : 3 911 Kbps
Width : 1 280 pixels
Height : 720 pixels
Display aspect ratio : 16:9
Frame rate mode : Constant
Frame rate : 23.976 fps
Color space : YUV
Chroma subsampling : 4:2:0
Bit depth : 8 bits
Scan type : Progressive
Bits/(Pixel*Frame) : 0.177
Stream size : 2.62 GiB (89%)
Language : English
Default : Yes
Forced : No
Color primaries : BT.709
Transfer characteristics : BT.709
Matrix coefficients : BT.709

Audio
ID : 2
Format : AC-3
Format/Info : Audio Coding 3
Mode extension : CM (complete main)
Format settings, Endianness : Big
Codec ID : A_AC3
Duration : 1h 35mn
Bit rate mode : Constant
Bit rate : 384 Kbps
Channel(s) : 6 channels
Channel positions : Front: L C R, Side: L R, LFE
Sampling rate : 48.0 KHz
Bit depth : 16 bits
Compression mode : Lossy
Stream size : 263 MiB (9%)
Language : English
Default : Yes
Forced : No

Text
ID : 3
Format : UTF-8
Codec ID : S_TEXT/UTF8
Codec ID/Info : UTF-8 Plain Text
Title : CC
Language : English
Default : No
Forced : No

Screenshot:

Sign up via clicking banner and a file link to creat a premium account.Then Get the access to protected links.

ExtMatrix Download Links

Klondike.S01.Special.Preview.1080p.WEB-DL.AAC2.0.H.264.HKD.mkv
Klondike.S01.Discovering.Klondike.1080p.WEB-DL.AAC2.0.H.264.HKD.mkv
Klondike.S01.Klondike.Behind.the.Scenes.1080p.WEB-DL.AAC2.0.H.264.HKD.mkv
Klondike.2014.S01E01.Part.One.720p.WEB-DL.DD5.1.H.264-BS.mkv
Klondike.2014.S01E01.Part.One.1080p.WEB-DL.DD5.1.H.264-BS.mkv
Klondike.2014.S01E02.Part.Two.1080p.WEB-DL.DD5.1.H.264-BS.mkv