External Links:   
Format : Matroska
Format version : Version 2
File size : 1.34 GiB
Duration : 43mn 25s
Overall bit rate : 4 415 Kbps
Encoded date : UTC 2011-10-06 15:44:00
Writing application : mkvmerge v5.0.0 (‘Die Wahre Liebe’) built on Sep 25 2011 20:33:49
Writing library : libebml v1.2.2 + libmatroska v1.3.0Video
ID : 1
Format : AVC
Format/Info : Advanced Video Codec
Format profile : High@L3.1
Format settings, CABAC : No
Format settings, ReFrames : 2 frames
Codec ID : V_MPEG4/ISO/AVC
Duration : 43mn 25s
Bit rate : 3 944 Kbps
Width : 1 280 pixels
Height : 720 pixels
Display aspect ratio : 16:9
Frame rate : 23.976 fps
Color space : YUV
Chroma subsampling : 4:2:0
Bit depth : 8 bits
Scan type : Progressive
Bits/(Pixel*Frame) : 0.178
Stream size : 1.20 GiB (89%)
Language : English
Color primaries : BT.709-5, BT.1361, IEC 61966-2-4, SMPTE RP177
Transfer characteristics : BT.709-5, BT.1361
Matrix coefficients : BT.709-5, BT.1361, IEC 61966-2-4 709, SMPTE RP177Audio
ID : 2
Format : AC-3
Format/Info : Audio Coding 3
Mode extension : CM (complete main)
Codec ID : A_AC3
Duration : 43mn 25s
Bit rate mode : Constant
Bit rate : 384 Kbps
Channel(s) : 6 channels
Channel positions : Front: L C R, Side: L R, LFE
Sampling rate : 48.0 KHz
Bit depth : 16 bits
Compression mode : Lossy
Stream size : 119 MiB (9%)
Title : English
Language : English
File Name Size
Law.&.Order.SVU.S13E18.720p.WEB DL.DD5.1.H264 KiNGS.mkv 1.34 GB
Law.&.Order.SVU.S13E17.720p.WEB DL.DD5.1.H264 KiNGS.mkv 1.32 GB
Law.&.Order.SVU.S13E16.720p.WEB DL.DD5.1.H264 KiNGS.mkv 1.34 GB
Law.&.Order.SVU.S13E15.720p.WEB DL.DD5.1.H264 KiNGS.mkv 1.38 GB
Law.&.Order.SVU.S13E19.720p.WEB DL.DD5.1.H264 KiNGS.mkv 1.36 GB
Law.&.Order.SVU.S13E20.720p.WEB DL.DD5.1.H264 KiNGS.mkv 1.32 GB
Law.&.Order.Special.Victims.Unit.S13E03.720p.WEB DL.DD5.1.H264 CtrlHD.mkv 1.34 GB
Law.&.Order.SVU.S13E23.720p.WEB DL.DD5.1.H264 KiNGS.mkv 1.34 GB
Law.&.Order.SVU.S13E22.720p.WEB DL.DD5.1.H264 KiNGS.mkv 1.38 GB
Law.&.Order.SVU.S13E21.720p.WEB DL.DD5.1.H264 KiNGS.mkv 1.35 GB
Law.&.Order.SVU.S13E14.720p.WEB DL.DD5.1.H264 KiNGS.mkv 1.34 GB
Law.&.Order.SVU.S13E13.720p.WEB DL.DD5.1.H264 KiNGS.mkv 1.30 GB
Law.&.Order.SVU.S13E06.720p.WEB DL.DD5.1.H264 KiNGS.mkv 1.30 GB
Law.&.Order.SVU.S13E05.720p.WEB DL.DD5.1.H264 KiNGS.mkv 1.28 GB
Law.&.Order.SVU.S13E04.720p.WEB DL.DD5.1.H264 KiNGS.mkv 1.31 GB
Law.&.Order.SVU.S13E02.720p.WEB DL.DD5.1.H264 KiNGS.mkv 1.34 GB
Law.&.Order.SVU.S13E07.720p.WEB DL.DD5.1.H264 KiNGS.mkv 1.41 GB
Law.&.Order.SVU.S13E08.720p.WEB DL.DD5.1.H264 KiNGS.mkv 1.38 GB
Law.&.Order.SVU.S13E12.720p.WEB DL.DD5.1.H264 KiNGS.mkv 1.34 GB
Law.&.Order.SVU.S13E11.720p.WEB DL.DD5.1.H264 KiNGS.mkv 1.29 GB
Law.&.Order.SVU.S13E10.720p.WEB DL.DD5.1.H264 KiNGS.mkv 1.34 GB
Law.&.Order.SVU.S13E09.720p.WEB DL.DD5.1.H264 KiNGS.mkv 1.34 GB
Law.&.Order.SVU.S13E01.720p.WEB DL.DD5.1.H264 KiNGS.mkv 1.35 GB

Screenshot:

 

Sign up via clicking banner and a file link to creat a premium account.

ExtMatrix Download Links

Law.&.Order.SVU.S13E13.720p.WEB-DL.DD5.1.H264-KiNGS.rar
Law.&.Order.SVU.S13E12.720p.WEB-DL.DD5.1.H264-KiNGS.rar
Law.&.Order.SVU.S13E14.720p.WEB-DL.DD5.1.H264-KiNGS.rar
Law.&.Order.SVU.S13E15.720p.WEB-DL.DD5.1.H264-KiNGS.rar
Law.&.Order.SVU.S13E11.720p.WEB-DL.DD5.1.H264-KiNGS.rar
Law.&.Order.SVU.S13E10.720p.WEB-DL.DD5.1.H264-KiNGS.rar
Law.&.Order.SVU.S13E09.720p.WEB-DL.DD5.1.H264-KiNGS.rar
Law.&.Order.SVU.S13E08.720p.WEB-DL.DD5.1.H264-KiNGS.rar
Law.&.Order.SVU.S13E05.720p.WEB-DL.DD5.1.H264-KiNGS.rar
Law.&.Order.SVU.S13E06.720p.WEB-DL.DD5.1.H264-KiNGS.rar
Law.&.Order.SVU.S13E07.720p.WEB-DL.DD5.1.H264-KiNGS.rar
Law.&.Order.SVU.S13E04.720p.WEB-DL.DD5.1.H264-KiNGS.rar
Law.&.Order.SVU.S13E02.720p.WEB-DL.DD5.1.H264-KiNGS.rar
Law.&.Order.SVU.S13E01.720p.WEB-DL.DD5.1.H264-KiNGS.rar
Law.&.Order.Special.Victims.Unit.S13E03.720p.WEB-DL.DD5.1.H264-CtrlHD.rar
Law.&.Order.SVU.S13E23.720p.WEB-DL.DD5.1.H264-KiNGS.rar
Law.&.Order.SVU.S13E20.720p.WEB-DL.DD5.1.H264-KiNGS.rar
Law.&.Order.SVU.S13E21.720p.WEB-DL.DD5.1.H264-KiNGS.rar
Law.&.Order.SVU.S13E22.720p.WEB-DL.DD5.1.H264-KiNGS.rar
Law.&.Order.SVU.S13E19.720p.WEB-DL.DD5.1.H264-KiNGS.rar
Law.&.Order.SVU.S13E18.720p.WEB-DL.DD5.1.H264-KiNGS.rar
Law.&.Order.SVU.S13E17.720p.WEB-DL.DD5.1.H264-KiNGS.rar
Law.&.Order.SVU.S13E16.720p.WEB-DL.DD5.1.H264-KiNGS.rar