Louie S03E12 720p WEB-DL DD5 1 H 264 – HoodBag

Louie S03E12 720p WEB-DL DD5 1 H 264 - HoodBag

Series Info

# of Seasons: 3
Country: US
Air Day: Thursday
Air Time: 10:30 PM
First Aired: 2010-06-29
Rating: TV-MA
Series Status: Returning Series
Runtime: 30 Minutes
Network: FX
Classification: Scripted
TVDB Rating: 9.0
External Links:   

 Louie (2010)

TV Series  –  23 min  –  tvComedy | tvDrama
8.7

Your rating:

   -/10
Ratings: 8.7/10 from 17,278 users Reviews: 31 user | 34 critic

Sitcom in which we follow Louie’s everyday ordeals, quest to find love and pursuit of humor.

Creator:

Louis C.K.

Stars:

 General
Complete name : Louie S03E12 Late Show, Pt. 3 720p WEB-DL DD5.1 H.264 – HoodBag.mkv
Format : Matroska
Format version : Version 2
File size : 707 MiB
Duration : 21mn 20s
Overall bit rate : 4 632 Kbps
Video
Format : AVC
Duration : 21mn 20s
Bit rate : 4 156 Kbps
Width : 1 280 pixels
Height : 720 pixels
Display aspect ratio : 16:9
Frame rate : 23.976 fps
Color space : YUV
Chroma subsampling : 4:2:0
Bit depth : 8 bits
Scan type : Progressive
Bits/(Pixel*Frame) : 0.188
Stream size : 634 MiB (90%)
Language : English

Audio
Format : AC-3
Duration : 21mn 20s
Bit rate mode : Constant
Bit rate : 384 Kbps
Channel(s) : 6 channels
Channel positions : Front: L C R, Side: L R, LFE
Sampling rate : 48.0 KHz
Bit depth : 16 bits
Compression mode : Lossy
Delay relative to video : 10ms
Stream size : 58.6 MiB (8%)
Language : English

File Name Size
Louie S03E12 Late Show, Pt. 3 720p WEB DL DD5.1 H.264 HoodBag.mkv 707.03 MB

Screenshot

http://www.imagebam.com/image/7fded0211562236

http://www.imagebam.com/image/7b5f84211562261

Sign up via clicking banner and a file link to creat a premium account.
Louie S03E12 720p WEB-DL DD5 1 H 264 - HoodBag
ExtMatrix Download Links