Useful link:

IMDB

TVRAGE

TVDB

MediaInfo:
General
Complete name : Louie.S04E02.1080p.WEB-DL.DD5.1.H.264.HKD.mkv
Format : Matroska
Format version : Version 4 / Version 2
File size : 975 MiB
Duration : 25mn 17s
Overall bit rate : 5 390 Kbps
Movie name : ripped by CrazyHDSource.com

Video
ID : 1
Format : AVC
Format/Info : Advanced Video Codec
Format profile : High@L4.0
Format settings, CABAC : Yes
Format settings, ReFrames : 4 frames
Codec ID : V_MPEG4/ISO/AVC
Duration : 25mn 17s
Bit rate : 4 899 Kbps
Width : 1 920 pixels
Height : 1 080 pixels
Display aspect ratio : 16:9
Frame rate mode : Constant
Frame rate : 23.976 fps
Color space : YUV
Chroma subsampling : 4:2:0
Bit depth : 8 bits
Scan type : Progressive
Bits/(Pixel*Frame) : 0.099
Stream size : 886 MiB (91%)
Title : ripped by CrazyHDSource.com
Language : English
Default : Yes
Forced : No
Color primaries : BT.709
Transfer characteristics : BT.709
Matrix coefficients : BT.709

Audio
ID : 2
Format : AC-3
Format/Info : Audio Coding 3
Mode extension : CM (complete main)
Format settings, Endianness : Big
Codec ID : A_AC3
Duration : 25mn 17s
Bit rate mode : Constant
Bit rate : 384 Kbps
Channel(s) : 6 channels
Channel positions : Front: L C R, Side: L R, LFE
Sampling rate : 48.0 KHz
Bit depth : 16 bits
Compression mode : Lossy
Stream size : 69.5 MiB (7%)
Language : English
Default : Yes
Forced : No

Text
ID : 3
Format : UTF-8
Codec ID : S_TEXT/UTF8
Codec ID/Info : UTF-8 Plain Text
Language : English
Default : No
Forced : No

Louie S04E01 Back 1080p WEB DL DD5.1 H.264 HKD.mkv 918.19 MB
Louie S04E02 Model 1080p WEB DL DD5.1 H.264 HKD.mkv 975.32 MB
Louie S04E03 So Did the Fat Lady 1080p WEB DL DD5.1 H.264 HoodBag.mkv 996.82 MB
Louie S04E04 Elevator Part 1 1080p WEB DL DD5.1 H.264 HoodBag.mkv 926.98 MB
Louie S04E05 Elevator Part 2 1080p WEB DL DD5.1 H.264 HKD.mkv 869.76 MB
Louie S04E06 Elevator Part 3 1080p WEB DL DD5.1 H.264 HKD.mkv 859.77 MB
Louie S04E07 Elevator Part 4 1080p WEB DL DD5.1 H.264 HKD.mkv 927.34 MB
Louie S04E08 Elevator Part 5 1080p WEB DL DD5.1 H.264 HKD.mkv 865.94 MB
Louie S04E09 Elevator Part 6 1080p WEB DL DD5.1 H.264 HoodBag.mkv 888.29 MB
Louie S04E10 Pamela Part 1 1080p WEB DL DD5.1 H.264 HoodBag.mkv 908.17 MB
Louie S04E11 In the Woods Part 1 1080p WEB DL DD5.1 H.264 HoodBag.mkv 1.26 GB
Louie S04E12 In the Woods Part 2 1080p WEB DL DD5.1 H.264 HoodBag.mkv 1.36 GB
Louie S04E13 Pamela Part 2 1080p WEB DL DD5.1 H.264 HoodBag.mkv 908.32 MB
Louie S04E14 Pamela Part 3 1080p WEB DL DD5.1 H.264 HoodBag.mkv 973.59 MB

Screenshot:

Sign up via clicking banner and a file link to creat a premium account.Then Get the access to protected links.

ExtMatrix Download Links

Louie S04E03 So Did the Fat Lady 1080p WEB-DL DD5.1 H.264-HoodBag.mkv
Louie S04E04 Elevator Part 1 1080p WEB-DL DD5.1 H.264-HoodBag.mkv
Louie.S04E08.1080p.WEB-DL.DD5.1.H.264.HKD.part2.rar
Louie.S04E08.1080p.WEB-DL.DD5.1.H.264.HKD.part1.rar
Louie S04E09 Elevator Part 6 1080p WEB-DL DD5.1 H.264-HoodBag.mkv
Louie S04E10 Pamela Part 1 1080p WEB-DL DD5.1 H.264-HoodBag.mkv
Louie S04E11 In the Woods Part 1 1080p WEB-DL DD5.1 H.264-HoodBag.mkv
Louie S04E12 In the Woods Part 2 1080p WEB-DL DD5.1 H.264-HoodBag.mkv
Louie S04E13 Pamela Part 2 1080p WEB-DL DD5.1 H.264-HoodBag.mkv
Louie S04E06 Elevator Part 3 1080p WEB-DL DD5.1 H.264-HoodBag.mkv
Louie S04E05 Elevator Part 2 1080p WEB-DL DD5.1 H.264-HoodBag.mkv
Louie S04E07 Elevator Part 4 1080p WEB-DL DD5.1 H.264-HoodBag.mkv
Louie S04E14 Pamela Part 3 1080p WEB-DL DD5.1 H.264-HoodBag.mkv
Louie S04E01 Back 1080p WEB-DL DD5.1 H.264 - HoodBag.mkv
Louie S04E02 Model 1080p WEB-DL DD5.1 H.264 - HoodBag.mkv