External Links:

General
Complete name : Marvels Agents of S H I E L D S01E01 1080p WEB-DL DD5 1 H 264 HKD.mkv
Format : Matroska
Format version : Version 4 / Version 2
File size : 1.65 GiB
Duration : 44mn 4s
Overall bit rate : 5 369 Kbps
Movie name : ripped by CrazyHDSource.com

Video
ID : 1
Format : AVC
Format/Info : Advanced Video Codec
Format profile : High@L4.0
Format settings, CABAC : Yes
Format settings, ReFrames : 4 frames
Codec ID : V_MPEG4/ISO/AVC
Duration : 44mn 4s
Bit rate : 4 878 Kbps
Width : 1 920 pixels
Height : 1 080 pixels
Display aspect ratio : 16:9
Frame rate mode : Constant
Frame rate : 23.976 fps
Color space : YUV
Chroma subsampling : 4:2:0
Bit depth : 8 bits
Scan type : Progressive
Bits/(Pixel*Frame) : 0.098
Stream size : 1.50 GiB (91%)
Title : ripped by CrazyHDSource.com
Language : English
Default : Yes
Forced : No
Color primaries : BT.709
Transfer characteristics : BT.709
Matrix coefficients : BT.709

Audio
ID : 2
Format : AC-3
Format/Info : Audio Coding 3
Mode extension : CM (complete main)
Format settings, Endianness : Big
Codec ID : A_AC3
Duration : 44mn 4s
Bit rate mode : Constant
Bit rate : 384 Kbps
Channel(s) : 6 channels
Channel positions : Front: L C R, Side: L R, LFE
Sampling rate : 48.0 KHz
Bit depth : 16 bits
Compression mode : Lossy
Stream size : 121 MiB (7%)
Language : English
Default : Yes
Forced : No

Text
ID : 3
Format : UTF-8
Codec ID : S_TEXT/UTF8
Codec ID/Info : UTF-8 Plain Text
Language : English
Default : No
Forced : No

Marvel.s.Agents.of.S.H.I.E.L.D.S01.Special.Look.1080p.WEB-DL.AAC2.0.H.264.HKD.mkv 101.38 MB
Screenshot:

Sign up via clicking banner and a file link to creat a premium account.Then Get the access to protected links.

ExtMatrix Download Links

Marvel.s.Agents.of.S.H.I.E.L.D.S01.Special.Look.1080p.WEB-DL.AAC2.0.H.264.HKD.mkv
10.Series.On.ABC.Drama.Sizzle.720p.WEB-DL.AAC2.0.H.264.HKD.mkv
Marvels.Agents.of.S.H.I.E.L.D.S01E01.720p.HDTV.X264-DIMENSION.mkv
Marvels.Agents.of.S.H.I.E.L.D.S01E02.720p.HDTV.X264-DIMENSION.mkv
Marvels.Agents.of.S.H.I.E.L.D.S01E10.1080p.WEB-DL.DD5.1.H.264.HKD.part1.rar
Marvels.Agents.of.S.H.I.E.L.D.S01E10.1080p.WEB-DL.DD5.1.H.264.HKD.part2.rar

Click Here for downloading links Marvels Agents of S.H.I.E.L.D S01E01 p1080p WEB-DL DD5 1 H 264 HKD

Click Here for downloading links Marvels Agents of S.H.I.E.L.D S01E02 p1080p WEB-DL DD5 1 H 264 HKD

Click Here for downloading links Marvels Agents of S.H.I.E.L.D S01E03 p1080p WEB-DL DD5 1 H 264 HKD

Click Here for downloading links Marvels Agents of S.H.I.E.L.D S01E04p1080p WEB-DL DD5 1 H 264 HKD

Click Here for downloading links Marvels Agents of S.H.I.E.L.D S01E05 p1080p WEB-DL DD5 1 H 264 HKD

Click Here for downloading links Marvels Agents of S.H.I.E.L.D S01E06 p1080p WEB-DL DD5 1 H 264 HKD

Click Here for downloading links Marvels Agents of S.H.I.E.L.D S01E07 p1080p WEB-DL DD5 1 H 264 HKD

Click Here for downloading links Marvels Agents of S.H.I.E.L.D S01E08 p1080p WEB-DL DD5 1 H 264 HKD

Click Here for downloading links Marvels Agents of S.H.I.E.L.D S01E09 p1080p WEB-DL DD5 1 H 264 HKD

Click Here for downloading links Marvels Agents of S.H.I.E.L.D S01E11 p1080p WEB-DL DD5 1 H 264 HKD

Click Here for downloading links Marvels Agents of S.H.I.E.L.D S01E12 p1080p WEB-DL DD5 1 H 264 HKD