External Links:

General
Complete name : Mercy.S01E12.Wake Up, Bill.720p.WEB-DL.DD5.1.H.264-LP.mkv
Format : Matroska
Format version : Version 2
File size : 1.32 GiB
Duration : 42mn 40s
Overall bit rate : 4 436 Kbps

Video
ID : 1
Format : AVC
Format/Info : Advanced Video Codec
Format profile : High@L3.1
Format settings, CABAC : No
Format settings, ReFrames : 2 frames
Codec ID : V_MPEG4/ISO/AVC
Duration : 42mn 40s
Bit rate : 3 964 Kbps
Width : 1 280 pixels
Height : 720 pixels
Display aspect ratio : 16:9
Frame rate mode : Constant
Frame rate : 23.976 fps
Color space : YUV
Chroma subsampling : 4:2:0
Bit depth : 8 bits
Scan type : Progressive
Bits/(Pixel*Frame) : 0.179
Stream size : 1.18 GiB (89%)
Language : English
Default : Yes
Forced : No
Color primaries : BT.709
Transfer characteristics : BT.709
Matrix coefficients : BT.709

Audio
ID : 2
Format : AC-3
Format/Info : Audio Coding 3
Mode extension : CM (complete main)
Format settings, Endianness : Big
Codec ID : A_AC3
Duration : 42mn 40s
Bit rate mode : Constant
Bit rate : 384 Kbps
Channel(s) : 6 channels
Channel positions : Front: L C R, Side: L R, LFE
Sampling rate : 48.0 KHz
Bit depth : 16 bits
Compression mode : Lossy
Stream size : 117 MiB (9%)
Language : English
Default : Yes
Forced : No

File Name Size
MERCY S01 E04 PULLING THE GOALIE 720p DD5.1 ITUNES MMI.mkv 1.37 GB
MERCY S01 E05 YOU LOST ME WITH THE CINDER BLOCK 720p DD5.1 ITUNES MMI.mkv 1.32 GB
Mercy.S01E01.Can.We.Get.That.Drink.Now.720p.WEB DL.h.264.DD5.1 LP.mkv 1.59 GB
Mercy.S01E02.I.Believe.You.Conrad.720p.WEB DL.h.264.DD5.1 LP.mkv 1.25 GB
Mercy.S01E03.Hope.Youre.Good.Smiley.Face.720p.WEB DL.h.264.DD5.1 LP.mkv 1.32 GB
Mercy.S01E06.The.Last.Thing.I.Said.Was.720p.WEB DL.h.264.DD5.1 LP.mkv 1.35 GB
Mercy.S01E07.Destiny.Meet.My.Daughter.Veronica.720p.WEB DL.h.264.DD5.1 LP.mkv 1.30 GB
Mercy.S01E08.Im.Not.That.Kind.of.Girl.720p.WEB DL.h.264.DD5.1 LP.mkv 1.38 GB
Mercy.S01E09.Some.of.Us.Have.Been.to.the.Deser.720p.WEB DL.h.264.DD5.1 LP.mkv 1.37 GB
Mercy.S01E10.I Saw This Pig and I Thought of You.720p.WEB DL.DD5.1.H.264 LP.mkv 1.31 GB
Mercy.S01E11.We’re All Adults.720p.WEB DL.DD5.1.H.264 LP.mkv 1.33 GB
Mercy.S01E12.Wake Up, Bill.720p.WEB DL.DD5.1.H.264 LP.mkv 1.32 GB
Mercy.S01E13.720p.WEB DL.DD5.1.H.264 LP.mkv 1.36 GB
Mercy.S01E14.I Have a Date.720p.WEB DL.DD5.1.H.264 LP.mkv 1.34 GB
Mercy.S01E15.I Did Kill You, Didn’t I .WEB DL.DD5.1.H.264 LP.mkv 1.29 GB
Mercy.S01E16.I’m Fine.WEB DL.DD5.1.H.264 LP.mkv 1.37 GB
Mercy.S01E17.There Is No Room For You On My Ass.720p.WEB DL.DD5.1.H.264 LP.mkv 1.28 GB
Mercy.S01E18.Of Course I’m Not.720p.WEB DL.DD5.1.H.264 LP.mkv 1.37 GB
Mercy.S01E19.There Is No Superwoman.720p.WEB DL.DD5.1.H.264 LP.mkv 1.33 GB
Mercy.S01E20.We All Saw This Coming.720p.WEB DL.DD5.1.H.264 LP.mkv 1.37 GB
Mercy.S01E21.Too Much Attitude and Not Enough.720p.WEB DL.DD5.1.H.264 LP.mkv 1.28 GB
Mercy.S01E22.That Crazy Bitch Was Right.720p.WEB DL.DD5.1.H.264 LP.mkv 1.32 GB

Screenshot:

Sign up via clicking banner and a file link to creat a premium account.Then Get the access to protected links.

ExtMatrix Download Links

Click Here for downloading links Mercy S01 720p WEB-DL DD5.1 h.264 LP MMI