Useful link:

IMDB

TVDB

MediaInfo:
General
Complete name : aaf-miss.fishers.murder.mysteries.s01e07.720p.bluray.x264.mkv
Format : Matroska
Format version : Version 2
File size : 2.19 GiB
Duration : 54mn 47s
Overall bit rate : 5 713 Kbps

Video
ID : 1
Format : AVC
Format/Info : Advanced Video Codec
Format profile : High@L4.1
Format settings, CABAC : Yes
Format settings, ReFrames : 5 frames
Codec ID : V_MPEG4/ISO/AVC
Duration : 54mn 47s
Bit rate : 5 489 Kbps
Width : 1 280 pixels
Height : 720 pixels
Display aspect ratio : 16:9
Frame rate mode : Constant
Frame rate : 23.976 fps
Color space : YUV
Chroma subsampling : 4:2:0
Bit depth : 8 bits
Scan type : Progressive
Bits/(Pixel*Frame) : 0.248
Stream size : 2.06 GiB (94%)
Writing library : x264 core 125 r2200 999b753
Encoding settings : cabac=1 / ref=5 / deblock=1:0:0 / analyse=0x3:0x133 / me=umh / subme=8 / psy=1 /

Audio
ID : 2
Format : AC-3
Format/Info : Audio Coding 3
Mode extension : CM (complete main)
Format settings, Endianness : Big
Codec ID : A_AC3
Duration : 54mn 47s
Bit rate mode : Constant
Bit rate : 224 Kbps
Channel(s) : 2 channels
Channel positions : Front: L R
Sampling rate : 48.0 KHz
Bit depth : 16 bits
Compression mode : Lossy
Stream size : 87.8 MiB (4%)
Default : Yes
Forced : No

pfa mfmm.s02e01.720p.mkv 2.17 GB
pfa mfmm.s02e02.720p.mkv 2.17 GB
pfa mfmm.s02e03.720p.mkv 2.17 GB
pfa mfmm.s02e04.720p.mkv 2.17 GB
pfa mfmm.s02e05.720p.mkv 2.17 GB
pfa mfmm.s02e06.720p.mkv 2.17 GB
pfa mfmm.s02e07.720p.mkv 2.17 GB
pfa mfmm.s02e08.720p.mkv 2.17 GB
pfa mfmm.s02e09.720p.mkv 2.17 GB
pfa mfmm.s02e10.720p.mkv 2.17 GB
pfa mfmm.s02e11.720p.mkv 2.17 GB
pfa mfmm.s02e12.720p.mkv 2.17 GB
pfa mfmm.s02e13.720p.mkv 2.17 GB

aaf miss.fishers.murder.mysteries.s01e01.720p.bluray.x264.mkv 2.19 GB
aaf miss.fishers.murder.mysteries.s01e02.720p.bluray.x264.mkv 2.19 GB
aaf miss.fishers.murder.mysteries.s01e03.720p.bluray.x264.mkv 2.19 GB
aaf miss.fishers.murder.mysteries.s01e04.720p.bluray.x264.mkv 2.19 GB
aaf miss.fishers.murder.mysteries.s01e05.720p.bluray.x264.mkv 2.19 GB
aaf miss.fishers.murder.mysteries.s01e06.720p.bluray.x264.mkv 2.19 GB
aaf miss.fishers.murder.mysteries.s01e07.720p.bluray.x264.mkv 2.19 GB
aaf miss.fishers.murder.mysteries.s01e08.720p.bluray.x264.mkv 2.19 GB
aaf miss.fishers.murder.mysteries.s01e09.720p.bluray.x264.mkv 2.18 GB
aaf miss.fishers.murder.mysteries.s01e10.720p.bluray.x264.mkv 2.19 GB
aaf miss.fishers.murder.mysteries.s01e11.720p.bluray.x264.mkv 2.19 GB
aaf miss.fishers.murder.mysteries.s01e12.720p.bluray.x264.mkv 2.18 GB
aaf miss.fishers.murder.mysteries.s01e13.720p.bluray.x264.mkv 2.19 GB

Screenshot:

Sign up via clicking banner and a file link to creat a premium account.Then Get the access to protected links.

ExtMatrix Download Links

aaf-miss.fishers.murder.mysteries.s01e01.720p.bluray.x264.mkv
aaf-miss.fishers.murder.mysteries.s01e02.720p.bluray.x264.mkv
aaf-miss.fishers.murder.mysteries.s01e04.720p.bluray.x264.mkv
aaf-miss.fishers.murder.mysteries.s01e05.720p.bluray.x264.mkv
aaf-miss.fishers.murder.mysteries.s01e06.720p.bluray.x264.mkv
aaf-miss.fishers.murder.mysteries.s01e07.720p.bluray.x264.mkv
aaf-miss.fishers.murder.mysteries.s01e08.720p.bluray.x264.mkv
aaf-miss.fishers.murder.mysteries.s01e09.720p.bluray.x264.mkv
aaf-miss.fishers.murder.mysteries.s01e10.720p.bluray.x264.mkv
aaf-miss.fishers.murder.mysteries.s01e11.720p.bluray.x264.mkv
aaf-miss.fishers.murder.mysteries.s01e12.720p.bluray.x264.mkv
aaf-miss.fishers.murder.mysteries.s01e13.720p.bluray.x264.mkv
pfa-mfmm.s02e02.720p.mkv
pfa-mfmm.s02e03.720p.mkv
pfa-mfmm.s02e04.720p.mkv
pfa-mfmm.s02e05.720p.mkv
pfa-mfmm.s02e06.720p.mkv
pfa-mfmm.s02e07.720p.mkv
pfa-mfmm.s02e08.720p.mkv
pfa-mfmm.s02e09.720p.mkv
pfa-mfmm.s02e10.720p.mkv
pfa-mfmm.s02e11.720p.mkv
pfa-mfmm.s02e12.720p.mkv
pfa-mfmm.s02e13.720p.mkv