Useful link:

MediaInfo:
General
Complete name : Nightcrawler.2014.1080p.WEB-DL.DD5.1.H.264.HKD.mkv
Format : Matroska
Format version : Version 4 / Version 2
File size : 3.48 GiB
Duration : 1h 58mn
Overall bit rate : 4 219 Kbps
Movie name : ripped by CrazyHDSource.com

Video
ID : 1
Format : AVC
Format/Info : Advanced Video Codec
Format profile : High@L4.0
Format settings, CABAC : Yes
Format settings, ReFrames : 5 frames
Codec ID : V_MPEG4/ISO/AVC
Duration : 1h 58mn
Bit rate : 3 751 Kbps
Width : 1 916 pixels
Height : 796 pixels
Display aspect ratio : 2.40:1
Frame rate mode : Constant
Frame rate : 23.976 fps
Color space : YUV
Chroma subsampling : 4:2:0
Bit depth : 8 bits
Scan type : Progressive
Bits/(Pixel*Frame) : 0.103
Stream size : 3.09 GiB (89%)
Title : ripped by CrazyHDSource.com
Language : English
Default : Yes
Forced : No
Color primaries : BT.709
Transfer characteristics : BT.709
Matrix coefficients : BT.709
Color range : Limited

Audio
ID : 2
Format : AC-3
Format/Info : Audio Coding 3
Mode extension : CM (complete main)
Format settings, Endianness : Big
Codec ID : A_AC3
Duration : 1h 58mn
Bit rate mode : Constant
Bit rate : 384 Kbps
Channel(s) : 6 channels
Channel positions : Front: L C R, Side: L R, LFE
Sampling rate : 48.0 KHz
Bit depth : 16 bits
Compression mode : Lossy
Stream size : 324 MiB (9%)
Language : English
Default : Yes
Forced : No

Text
ID : 3
Format : UTF-8
Codec ID : S_TEXT/UTF8
Codec ID/Info : UTF-8 Plain Text
Language : English
Default : No
Forced : No

Menu
00:00:00.000 : en:1
00:06:26.000 : en:2
00:11:24.000 : en:3
00:16:18.000 : en:4
00:23:51.000 : en:5
00:30:49.000 : en:6
00:36:31.000 : en:7
00:42:46.000 : en:8
00:46:57.000 : en:9
00:53:18.000 : en:10
01:00:56.000 : en:11
01:07:29.000 : en:12
01:13:07.000 : en:13
01:18:25.000 : en:14
01:25:09.000 : en:15
01:29:26.000 : en:16
01:36:13.000 : en:17
01:44:56.000 : en:18
01:48:39.000 : en:19
01:53:46.000 : en:20

Screenshot:

Sign up via clicking banner and a file link to creat a premium account.Then Get the access to protected links.

ExtMatrix Download Links

Nightcrawler.2014.1080p.WEB-DL.DD5.1.H.264.HKD.part1.rar
Nightcrawler.2014.1080p.WEB-DL.DD5.1.H.264.HKD.part2.rar
Nightcrawler.2014.1080p.WEB-DL.DD5.1.H.264.HKD.part3.rar
Nightcrawler.2014.1080p.WEB-DL.DD5.1.H.264.HKD.part4.rar