External Links:

General
Complete name : Once.Upon.a.Time.S03E01.1080p.WEB-DL.DD5.1.H.264.HKD.mkv
Format : Matroska
Format version : Version 4 / Version 2
File size : 1.72 GiB
Duration : 42mn 56s
Overall bit rate : 5 750 Kbps
Movie name : ripped by CrazyHDSource.com

Video
ID : 1
Format : AVC
Format/Info : Advanced Video Codec
Format profile : High@L4.0
Format settings, CABAC : Yes
Format settings, ReFrames : 4 frames
Codec ID : V_MPEG4/ISO/AVC
Duration : 42mn 56s
Bit rate : 5 251 Kbps
Width : 1 920 pixels
Height : 1 080 pixels
Display aspect ratio : 16:9
Frame rate mode : Constant
Frame rate : 23.976 fps
Color space : YUV
Chroma subsampling : 4:2:0
Bit depth : 8 bits
Scan type : Progressive
Bits/(Pixel*Frame) : 0.106
Stream size : 1.57 GiB (91%)
Title : ripped by CrazyHDSource.com
Language : English
Default : Yes
Forced : No
Color primaries : BT.709
Transfer characteristics : BT.709
Matrix coefficients : BT.709

Audio
ID : 2
Format : AC-3
Format/Info : Audio Coding 3
Mode extension : CM (complete main)
Format settings, Endianness : Big
Codec ID : A_AC3
Duration : 42mn 56s
Bit rate mode : Constant
Bit rate : 384 Kbps
Channel(s) : 6 channels
Channel positions : Front: L C R, Side: L R, LFE
Sampling rate : 48.0 KHz
Bit depth : 16 bits
Compression mode : Lossy
Stream size : 118 MiB (7%)
Language : English
Default : Yes
Forced : No

Text
ID : 3
Format : UTF-8
Codec ID : S_TEXT/UTF8
Codec ID/Info : UTF-8 Plain Text
Language : English
Default : No
Forced : No

Once.Upon.a.Time.S03.Special.Journey.to.Neverland.1080p.WEB-DL.DD5.1.H.264.HKD.MKV 1.59 GB
Screenshot:

Sign up via clicking banner and a file link to creat a premium account.Then Get the access to protected links.

ExtMatrix Download Links

10.Series.On.ABC.Drama.Sizzle.720p.WEB-DL.AAC2.0.H.264.HKD.mkv
once.upon.a.time.s03.special-journey.to.neverland.720p.hdtv.x264-bajskorv.mkv
Once.Upon.A.Time.S03E01.The.Heart.Of.The.Truest.Believer.720p.WEB-DL.DD5.1.H.264-ECI.mkv
Once.Upon.A.Time.S03E02.Lost.Girl.720p.WEB-DL.DD5.1.H.264-ECI.mkv
Once.Upon.a.Time.S03E03.Quite.A.Common.Fairy.720p.WEB-DL.DD5.1.H.264-ECI.mkv
Once.Upon.a.Time.S03E04.Nasty.Habits.720p.WEB-DL.DD5.1.H.264-ECI.mkv
Once.Upon.a.Time.S03E05.Good.Form.720p.WEB-DL.DD5.1.H.264-ECI.mkv
Once.Upon.a.Time.S03E06.Ariel.720p.WEB-DL.DD5.1.H.264-ECI.mkv
Once.Upon.a.Time.S03E07.Dark.Hollow.720p.WEB-DL.DD5.1.H.264-ECI.mkv
Once.Upon.a.Time.S03E08.Think.Lovely.Thoughts.720p.WEB-DL.DD5.1.H.264-ECI.mkv
Once.Upon.a.Time.S03E09.Save.Henry.720p.WEB-DL.DD5.1.H.264-ECI.mkv
Once.Upon.a.Time.S03E10.The.New.Neverland.720p.WEB-DL.DD5.1.H.264-ECI.mkv
Once.Upon.a.Time.S03E11.Going.Home.720p.WEB-DL.DD5.1.H.264-ECI.mkv

Click Here for downloading links Once Upon a Time S03E01 1080p WEB-DL DD5 1 H 264 HKD

Click Here for downloading links Once Upon a Time S03E02 1080p WEB-DL DD5 1 H 264 HKD

Click Here for downloading links Once Upon a Time S03E03 1080p WEB-DL DD5 1 H 264 HKD

Click Here for downloading links Once Upon a Time S03E04 1080p WEB-DL DD5 1 H 264 HKD

Click Here for downloading links Once Upon a Time S03E05 1080p WEB-DL DD5 1 H 264 HKD

Click Here for downloading links Once Upon a Time S03E06 1080p WEB-DL DD5 1 H 264 HKD

Click Here for downloading links Once Upon a Time S03E07 1080p WEB-DL DD5 1 H 264 HKD

Click Here for downloading links Once Upon a Time S03E08 1080p WEB-DL DD5 1 H 264 HKD

Click Here for downloading links Once Upon a Time S03E09 1080p WEB-DL DD5 1 H 264 HKD

Click Here for downloading links Once Upon a Time S03E10 1080p WEB-DL DD5 1 H 264 HKD

Click Here for downloading links Once Upon a Time S03E11 1080p WEB-DL DD5 1 H 264 HKD