Series Info
# of Seasons: 5
Country: US
Air Day: Tuesday
Air Time: 10:00 PM
First Aired: 2010-03-02
Rating: TV-PG
Series Status: Returning Series
Runtime: 60 Minutes
Network: NBC
Classification: Scripted
TVDB Rating: 8.4
External Links:

Parenthood (2010)

TV Series – 60 min – tvComedy | tvDrama
7.8

Your rating:

-/10
Ratings: 7.8/10 from 8,376 users
Reviews: 35 user | 14 critic

 

A family tree with Zeek (Craig T. Nelson) and Camille Braverman (Bonnie Bedelia) serving as the patriarch and matriarch…

 

General
Complete name : Parenthood.2010.S05E01.1080p.WEB-DL.DD5.1.H.264.HKD.mkv
Format : Matroska
Format version : Version 4 / Version 2
File size : 1.59 GiB
Duration : 42mn 51s
Overall bit rate : 5 295 Kbps
Movie name : ripped by CrazyHDSource.com

Video
ID : 1
Format : AVC
Format/Info : Advanced Video Codec
Format profile : High@L4.0
Format settings, CABAC : Yes
Format settings, ReFrames : 4 frames
Codec ID : V_MPEG4/ISO/AVC
Duration : 42mn 51s
Bit rate : 4 806 Kbps
Width : 1 920 pixels
Height : 1 080 pixels
Display aspect ratio : 16:9
Frame rate mode : Constant
Frame rate : 23.976 fps
Color space : YUV
Chroma subsampling : 4:2:0
Bit depth : 8 bits
Scan type : Progressive
Bits/(Pixel*Frame) : 0.097
Stream size : 1.44 GiB (91%)
Title : ripped by CrazyHDSource.com
Language : English
Default : Yes
Forced : No
Color primaries : BT.709
Transfer characteristics : BT.709
Matrix coefficients : BT.709

Audio
ID : 2
Format : AC-3
Format/Info : Audio Coding 3
Mode extension : CM (complete main)
Format settings, Endianness : Big
Codec ID : A_AC3
Duration : 42mn 51s
Bit rate mode : Constant
Bit rate : 384 Kbps
Channel(s) : 6 channels
Channel positions : Front: L C R, Side: L R, LFE
Sampling rate : 48.0 KHz
Bit depth : 16 bits
Compression mode : Lossy
Stream size : 118 MiB (7%)
Language : English
Default : Yes
Forced : No

Text
ID : 3
Format : UTF-8
Codec ID : S_TEXT/UTF8
Codec ID/Info : UTF-8 Plain Text
Language : English
Default : No
Forced : No

Parenthood.S05.Looking.Back_.Victor.Becomes.a.1080p.WEB-DL.AAC2.0.H.264-HKD.mkv 131.34 MB
Screenshot:

Sign up via clicking banner and a file link to creat a premium account.Then Get the access to protected links.

ExtMatrix Download Links

Parenthood.S05.Looking.Back_.Victor.Becomes.a.1080p.WEB-DL.AAC2.0.H.264-HKD.mkv
parenthood.2010.s05e04.720p.hdtv.x264-2hd.mkv
Parenthood.2010.S05E11.720p.HDTV.x264-REMARKABLE.mkv

Click Here for downloading links Parenthood 2010 S05E01 1080p WEB-DL DD5 1 H 264 HKD

Click Here for downloading links Parenthood 2010 S05E02 1080p WEB-DL DD5 1 H 264 HKD

Click Here for downloading links Parenthood 2010 S05E03 1080p WEB-DL DD5 1 H 264 HKD

Click Here for downloading links Parenthood 2010 S05E04 1080p WEB-DL DD5 1 H 264 HKD

Click Here for downloading links Parenthood 2010 S05E05 1080p WEB-DL DD5 1 H 264 HKD

Click Here for downloading links Parenthood 2010 S05E06 1080p WEB-DL DD5 1 H 264 HKD

Click Here for downloading links Parenthood 2010 S05E07 1080p WEB-DL DD5 1 H 264 HKD

Click Here for downloading links Parenthood 2010 S05E08 1080p WEB-DL DD5 1 H 264 HKD

Click Here for downloading links Parenthood 2010 S05E09 1080p WEB-DL DD5 1 H 264 HKD

Click Here for downloading links Parenthood 2010 S05E10 1080p WEB-DL DD5 1 H 264 HKD