External Links:

Perception.S01.720p.WEB-DL.DD5.1.H.264-KiNGS
WEB-DL H264 – KiNGS Release
September 19, 2012

General
Complete name : Perception.S01E05.720p.WEB-DL.DD5.1.H.264-KiNGS.mkv
Format : Matroska
Format version : Version 2
File size : 1.35 GiB
Duration : 42mn 13s
Overall bit rate : 4 589 Kbps

Video
Format : AVC
Duration : 42mn 13s
Bit rate : 4 114 Kbps
Width : 1 280 pixels
Height : 720 pixels
Display aspect ratio : 16:9
Frame rate : 23.976 fps
Color space : YUV
Chroma subsampling : 4:2:0
Bit depth : 8 bits
Scan type : Progressive
Bits/(Pixel*Frame) : 0.186
Stream size : 1.21 GiB (90%)
Language : English

Audio
Format : AC-3
Duration : 42mn 13s
Bit rate mode : Constant
Bit rate : 384 Kbps
Channel(s) : 6 channels
Channel positions : Front: L C R, Side: L R, LFE
Sampling rate : 48.0 KHz
Bit depth : 16 bits
Compression mode : Lossy
Stream size : 116 MiB (8%)
Language : English

File Name Size
Perception.S01E01.720p.WEB DL.DD5.1.H.264 KiNGS.mkv 1.38 GB
Perception.S01E02.720p.WEB DL.DD5.1.H.264 KiNGS.mkv 1.29 GB
Perception.S01E03.720p.WEB DL.DD5.1.H.264 KiNGS.mkv 1.36 GB
Perception.S01E04.720p.WEB DL.DD5.1.H.264 KiNGS.mkv 1.30 GB
Perception.S01E05.720p.WEB DL.DD5.1.H.264 KiNGS.mkv 1.35 GB
Perception.S01E06.720p.WEB DL.DD5.1.H.264 KiNGS.mkv 1.27 GB
Perception.S01E07.720p.WEB DL.DD5.1.H.264 KiNGS.mkv 1.28 GB
Perception.S01E08.720p.WEB DL.DD5.1.H.264 KiNGS.mkv 1.26 GB
Perception.S01E09.720p.WEB DL.DD5.1.H.264 KiNGS.mkv 1.34 GB
Perception.S01E10.720p.WEB DL.DD5.1.H.264 KiNGS.mkv 1.35 GB

Sign up via clicking banner and a file link to creat a premium account.

ExtMatrix Links

Perception.S01E01.720p.WEB-DL.DD5.1.H.264-KiNGS.mkv
Perception.S01E02.720p.WEB-DL.DD5.1.H.264-KiNGS.mkv
Perception.S01E03.720p.WEB-DL.DD5.1.H.264-KiNGS.mkv
Perception.S01E04.720p.WEB-DL.DD5.1.H.264-KiNGS.mkv
Perception.S01E05.720p.WEB-DL.DD5.1.H.264-KiNGS.mkv
Perception.S01E06.720p.WEB-DL.DD5.1.H.264-KiNGS.mkv
Perception.S01E07.720p.WEB-DL.DD5.1.H.264-KiNGS.mkv
Perception.S01E08.720p.WEB-DL.DD5.1.H.264-KiNGS.mkv
Perception.S01E09.720p.WEB-DL.DD5.1.H.264-KiNGS.mkv
Perception.S01E10.720p.WEB-DL.DD5.1.H.264-KiNGS.mkv