Useful link:

IMDB

TVRAGE

TVDB

MediaInfo:
General
Complete name : Power.S01E01.Not.Exactly.How.We.Planned.1080p.WEB-DL.DD5.1.H.264-CtrlHD.mkv
Format : Matroska
Format version : Version 2
File size : 2.07 GiB
Duration : 57mn 53s
Overall bit rate : 5 128 Kbps

Video
ID : 1
Format : AVC
Format/Info : Advanced Video Codec
Format profile : High@L4.0
Format settings, CABAC : Yes
Format settings, ReFrames : 4 frames
Codec ID : V_MPEG4/ISO/AVC
Duration : 57mn 53s
Bit rate : 4 642 Kbps
Width : 1 908 pixels
Height : 1 068 pixels
Display aspect ratio : 16:9
Frame rate mode : Constant
Frame rate : 23.976 fps
Color space : YUV
Chroma subsampling : 4:2:0
Bit depth : 8 bits
Scan type : Progressive
Bits/(Pixel*Frame) : 0.095
Stream size : 1.88 GiB (91%)
Language : English
Default : Yes
Forced : No
Color primaries : BT.709
Transfer characteristics : BT.709
Matrix coefficients : BT.709

Audio
ID : 2
Format : AC-3
Format/Info : Audio Coding 3
Mode extension : CM (complete main)
Format settings, Endianness : Big
Codec ID : A_AC3
Duration : 57mn 53s
Bit rate mode : Constant
Bit rate : 384 Kbps
Channel(s) : 6 channels
Channel positions : Front: L C R, Side: L R, LFE
Sampling rate : 48.0 KHz
Bit depth : 16 bits
Compression mode : Lossy
Stream size : 159 MiB (7%)
Language : English
Default : Yes
Forced : No

Text
ID : 3
Format : UTF-8
Codec ID : S_TEXT/UTF8
Codec ID/Info : UTF-8 Plain Text
Title : CC
Language : English
Default : No
Forced : No

Power.S01E01.Not.Exactly.How.We.Planned.1080p.WEB DL.DD5.1.H.264 CtrlHD.mkv 2.07 GB
Power.S01E02.Whoever.He.Is.1080p.WEB DL.DD5.1.H.264 CtrlHD.mkv 2.09 GB
Power.S01E03.This.is.Real.1080p.WEB DL.DD5.1.H.264 CtrlHD.mkv 2.03 GB
Power.S01E04.Who.Are.You.1080p.WEB DL.DD5.1.H.264 CtrlHD.mkv 1.90 GB
Power.S01E05.I.Gotta.Go.1080p.WEB DL.DD5.1.H.264 CtrlHD.mkv 2.14 GB
Power.S01E06.Who.You.With.1080p.WEB DL.DD5.1.H.264 CtrlHD.mkv 2.17 GB
Power.S01E07.Loyalty.1080p.WEB DL.DD5.1.H.264 CtrlHD.mkv 2.19 GB
Power.S01E08.Man.of.the.Year.1080p.WEB DL.DD5.1.H.264 CtrlHD.mkv 2.18 GB

Screenshot:

Sign up via clicking banner and a file link to creat a premium account.Then Get the access to protected links.

ExtMatrix Download Links

Power.S01E01.Not.Exactly.How.We.Planned.1080p.WEB-DL.DD5.1.H.264-CtrlHD.mkv
Power.S01E02.Whoever.He.Is.1080p.WEB-DL.DD5.1.H.264-CtrlHD.mkv
Power.S01E03.This.is.Real.1080p.WEB-DL.DD5.1.H.264-CtrlHD.mkv
Power.S01E04.Who.Are.You.1080p.WEB-DL.DD5.1.H.264-CtrlHD.mkv
Power.S01E05.I.Gotta.Go.1080p.WEB-DL.DD5.1.H.264-CtrlHD.mkv
Power.S01E06.Who.You.With.1080p.WEB-DL.DD5.1.H.264-CtrlHD.mkv
Power.S01E07.Loyalty.1080p.WEB-DL.DD5.1.H.264-CtrlHD.mkv
Power.S01E08.Man.of.the.Year.1080p.WEB-DL.DD5.1.H.264-CtrlHD.mkv