External Links:

General
Complete name : Republic.of.Doyle.S05E01.Bon.Cop.Bueno.Cop.1080p.WEB-DL.DD5.1.H.264-iSuX.mkv
Format : Matroska
Format version : Version 2
File size : 1.70 GiB
Duration : 43mn 45s
Overall bit rate : 5 563 Kbps

Video
ID : 1
Format : AVC
Format/Info : Advanced Video Codec
Format profile : High@L4.0
Format settings, CABAC : Yes
Format settings, ReFrames : 4 frames
Codec ID : V_MPEG4/ISO/AVC
Duration : 43mn 46s
Bit rate : 5 068 Kbps
Width : 1 920 pixels
Height : 1 080 pixels
Display aspect ratio : 16:9
Frame rate mode : Constant
Frame rate : 23.976 fps
Color space : YUV
Chroma subsampling : 4:2:0
Bit depth : 8 bits
Scan type : Progressive
Bits/(Pixel*Frame) : 0.102
Stream size : 1.55 GiB (91%)
Language : English
Default : Yes
Forced : No
Color primaries : BT.709
Transfer characteristics : BT.709
Matrix coefficients : BT.709

Audio
ID : 2
Format : AC-3
Format/Info : Audio Coding 3
Mode extension : CM (complete main)
Format settings, Endianness : Big
Codec ID : A_AC3
Duration : 43mn 45s
Bit rate mode : Constant
Bit rate : 384 Kbps
Channel(s) : 6 channels
Channel positions : Front: L C R, Side: L R, LFE
Sampling rate : 48.0 KHz
Bit depth : 16 bits
Compression mode : Lossy
Stream size : 120 MiB (7%)
Language : English
Default : Yes
Forced : No

Screenshot:

Sign up via clicking banner and a file link to creat a premium account.Then Get the access to protected links.

ExtMatrix Download Links

Republic.of.Doyle.S05E01.Bon.Cop.Bueno.Cop.1080p.WEB-DL.DD5.1.H.264-iSuX.mkv
Republic.of.Doyle.S05E02.The.Overpass.1080p.WEB-DL.DD5.1.H.264-BS.mkv
Republic.of.Doyle.S05E03.Firecracker.1080p.WEB-DL.DD5.1.H.264-BS.mkv
Republic.of.Doyle.S05E04.Gun.For.Hire.1080p.WEB-DL.DD5.1.H.264-BS.mkv
Republic.of.Doyle.S05E05.The.Works.1080p.WEB-DL.DD5.1.H.264-BS.mkv
Republic.of.Doyle.S05E06.Missing.1080p.WEB-DL.DD5.1.H.264-BS.mkv
Republic.of.Doyle.S05E07.Hook.Line.and.Sinker.1080p.WEB-DL.DD5.1.H.264-BS.mkv
Republic.of.Doyle.S05E08.Young.Guns.1080p.WEB-DL.DD5.1.H.264-BS.mkv
Republic.of.Doyle.S05E09.Major.Crimes.1080p.WEB-DL.DD5.1.H.264-BS.mkv
Republic.of.Doyle.S05E10.Brothers.in.Arms.1080p.WEB-DL.DD5.1.H.264-BS.mkv
Republic.of.Doyle.S05E11.Frame.Job.1080p.WEB-DL.DD5.1.H.264-BS.mkv
Republic.of.Doyle.S05E12.Sleight.of.Hand.1080p.WEB-DL.DD5.1.H.264-BS.mkv
Republic.of.Doyle.S05E13.Welcome.Back.Crocker.1080p.WEB-DL.DD5.1.H.264-BS.mkv