Series Info

# of Seasons: 6
Country: US
Air Day: Sunday
Air Time: 11:30 PM
First Aired: 2005-02-01
Rating: TV-MA
Series Status: Returning Series
Runtime: 15 Minutes
Network: Cartoon Network
Classification: Animation
TVDB Rating: 8.2
External Links:

General
Complete name : Robot.Chicken.S07E02.1080p.WEB-DL.DD5.1.H.264-pcsyndicate.mkv
Format : Matroska
Format version : Version 4 / Version 2
File size : 408 MiB
Duration : 11mn 0s
Overall bit rate : 5 185 Kbps
Movie name : Robot Chicken – Link’s Sausages (S07E02)

Video
ID : 1
Format : AVC
Format/Info : Advanced Video Codec
Format profile : High@L4.0
Format settings, CABAC : Yes
Format settings, ReFrames : 5 frames
Codec ID : V_MPEG4/ISO/AVC
Duration : 11mn 0s
Bit rate : 4 698 Kbps
Width : 1 440 pixels
Height : 1 080 pixels
Display aspect ratio : 16:9
Frame rate mode : Constant
Frame rate : 29.970 fps
Color space : YUV
Chroma subsampling : 4:2:0
Bit depth : 8 bits
Scan type : Progressive
Bits/(Pixel*Frame) : 0.101
Stream size : 370 MiB (91%)
Title : Video
Language : English
Default : Yes
Forced : No
Color primaries : BT.709
Transfer characteristics : BT.709
Matrix coefficients : BT.709

Audio
ID : 2
Format : AC-3
Format/Info : Audio Coding 3
Mode extension : CM (complete main)
Format settings, Endianness : Big
Codec ID : A_AC3
Duration : 11mn 0s
Bit rate mode : Constant
Bit rate : 384 Kbps
Channel(s) : 6 channels
Channel positions : Front: L C R, Side: L R, LFE
Sampling rate : 48.0 KHz
Bit depth : 16 bits
Compression mode : Lossy
Stream size : 30.2 MiB (7%)
Title : English Audio (DD5.1)
Language : English
Default : Yes
Forced : No

Text
ID : 3
Format : UTF-8
Codec ID : S_TEXT/UTF8
Codec ID/Info : UTF-8 Plain Text
Title : CC
Language : English
Default : Yes
Forced : No

Screenshot:

Sign up via clicking banner and a file link to creat a premium account.
Robot Chicken S06E08 720p WEB-DL AAC2 0 H264-iT00NZ
ExtMatrix Download Links

Robot.Chicken.S07E10.1080p.WEB-DL.DD5.1.H.264-pcsyndicate.mkv