External Links:

General
Complete name : Royal.Pains.S05E01.Hankwatch.1080p.WEB-DL.DD5.1.H.264-NTb.mkv
Format : Matroska
Format version : Version 2
File size : 1.61 GiB
Duration : 42mn 54s
Overall bit rate : 5 383 Kbps
Writing application : mkvmerge v5.4.0 (‘Piper’) built on Mar 10 2012 13:34:39
Writing library : libebml v1.2.3 + libmatroska v1.3.0

Video
ID : 1
Format : AVC
Format/Info : Advanced Video Codec
Format profile : High@L4.0
Format settings, CABAC : Yes
Format settings, ReFrames : 4 frames
Codec ID : V_MPEG4/ISO/AVC
Duration : 42mn 54s
Bit rate : 4 892 Kbps
Width : 1 920 pixels
Height : 1 080 pixels
Display aspect ratio : 16:9
Frame rate mode : Constant
Frame rate : 23.976 fps
Color space : YUV
Chroma subsampling : 4:2:0
Bit depth : 8 bits
Scan type : Progressive
Bits/(Pixel*Frame) : 0.098
Stream size : 1.47 GiB (91%)
Language : English
Default : Yes
Forced : No
Color primaries : BT.709
Transfer characteristics : BT.709
Matrix coefficients : BT.709

Audio
ID : 2
Format : AC-3
Format/Info : Audio Coding 3
Mode extension : CM (complete main)
Format settings, Endianness : Big
Codec ID : A_AC3
Duration : 42mn 54s
Bit rate mode : Constant
Bit rate : 384 Kbps
Channel(s) : 6 channels
Channel positions : Front: L C R, Side: L R, LFE
Sampling rate : 48.0 KHz
Bit depth : 16 bits
Compression mode : Lossy
Stream size : 118 MiB (7%)
Language : English
Default : Yes
Forced : No

Text
ID : 3
Format : UTF-8
Codec ID : S_TEXT/UTF8
Codec ID/Info : UTF-8 Plain Text
Language : English
Default : Yes
Forced : No

File Name Size
Royal.Pains.S05E01.Hankwatch.1080p.WEB DL.DD5.1.H.264 NTb.mkv 1.61 GB
Royal.Pains.S05E02.Blythe.Spirits.1080p.WEB DL.DD5.1.H.264 NTb.mkv 1.68 GB
Royal.Pains.S05E03. Lawson.Translation.1080p.WEB DL.DD5.1.H.264 NTb.mkv 1.67 GB
Royal.Pains.S05E04.Pregnant.Paws.1080p.WEB DL.DD5.1.H.264 NTb.mkv 1.70 GB
Royal.Pains.S05E05.Vertigo.1080p.WEB DL.DD5.1.H.264 NTb.mkv 1.66 GB
Royal.Pains.S05E06.Can.Of.Worms.1080p.WEB DL.DD5.1.H.264 NTb.mkv 1.62 GB
Royal.Pains.S05E07.Chock.Full.O.Nuts.1080p.WEB DL.DD5.1.H.264 NTb.mkv 1.64 GB
Royal.Pains.S05E08.Hammertime.1080p.WEB DL.DD5.1.H.264 NTb.mkv 1.59 GB
Royal.Pains.S05E09.Pins.And.Needles.1080p.WEB DL.DD5.1.H.264 NTb.mkv 1.69 GB
Royal.Pains.S05E10.Game.Of.Phones.1080p.WEB DL.DD5.1.H.264 NTb.mkv 1.60 GB
Royal.Pains.S05E11.Open.Invitation.1080p.WEB DL.DD5.1.H.264 NTb.mkv 1.70 GB
Royal.Pains.S05E12.A.Trismus.Story.1080p.WEB DL.DD5.1.H.264 NTb.mkv 1.64 GB
Royal.Pains.S05E13.Bones.To.Pick.1080p.WEB DL.DD5.1.H.264 NTb.mkv 1.72 GB

Screenshot:

Sign up via clicking banner and a file link to creat a premium account.

ExtMatrix Download Links

Royal.Pains.S05E01.Hankwatch.1080p.WEB-DL.DD5.1.H.264-NTb.mkv
Royal.Pains.S05E03. Lawson.Translation.1080p.WEB-DL.DD5.1.H.264-NTb.mkv
Royal.Pains.S05E05.Vertigo.1080p.WEB-DL.DD5.1.H.264-NTb.mkv
Royal.Pains.S05E06.Can.Of.Worms.1080p.WEB-DL.DD5.1.H.264-NTb.mkv
Royal.Pains.S05E07.Chock.Full.O.Nuts.1080p.WEB-DL.DD5.1.H.264-NTb.mkv
Royal.Pains.S05E08.Hammertime.1080p.WEB-DL.DD5.1.H.264-NTb.mkv
Royal.Pains.S05E09.Pins.And.Needles.1080p.WEB-DL.DD5.1.H.264-NTb.mkv
Royal.Pains.S05E10.Game.Of.Phones.1080p.WEB-DL.DD5.1.H.264-NTb.mkv
Royal.Pains.S05E11.Open.Invitation.1080p.WEB-DL.DD5.1.H.264-NTb.mkv
Royal.Pains.S05E12.A.Trismus.Story.1080p.WEB-DL.DD5.1.H.264-NTb.mkv
Royal.Pains.S05E13.Bones.To.Pick.1080p.WEB-DL.DD5.1.H.264-NTb.mkv
Royal.Pains.S05E02.Blythe.Spirits.1080p.WEB-DL.DD5.1.H.264-NTb.mkv
Royal.Pains.S05E04.Pregnant.Paws.1080p.WEB-DL.DD5.1.H.264-NTb.mkv