External Links:

General
Complete name : Sanctuary S02E06 Fragments 720p BluRay DTS5.1 x264-CtrlHD.mkv
Format : Matroska
Format version : Version 2
File size : 1.51 GiB
Duration : 45mn 12s
Overall bit rate : 4 796 Kbps

Video
ID : 1
Format : AVC
Format/Info : Advanced Video Codec
Format profile : High@L4.1
Format settings, CABAC : Yes
Format settings, ReFrames : 9 frames
Codec ID : V_MPEG4/ISO/AVC
Duration : 45mn 12s
Bit rate : 3 192 Kbps
Width : 1 280 pixels
Height : 720 pixels
Display aspect ratio : 16:9
Frame rate mode : Constant
Frame rate : 23.976 fps
Color space : YUV
Chroma subsampling : 4:2:0
Bit depth : 8 bits
Scan type : Progressive
Bits/(Pixel*Frame) : 0.144
Stream size : 1.01 GiB (67%)
Title : H.264 720p BluRay
Writing library : x264 core 98 r1649 20cbe10
Encoding settings : cabac=1 / ref=9 / deblock=1:-2:-2 / analyse=0x3:0x133 / me=umh / subme=10 /

Audio
ID : 2
Format : DTS
Format/Info : Digital Theater Systems
Mode : 16
Format settings, Endianness : Big
Codec ID : A_DTS
Duration : 45mn 12s
Bit rate mode : Constant
Bit rate : 1 509 Kbps
Channel(s) : 6 channels
Channel positions : Front: L C R, Side: L R, LFE
Sampling rate : 48.0 KHz
Bit depth : 24 bits
Compression mode : Lossy
Stream size : 488 MiB (31%)
Title : DTS 5.1
Language : English
Default : Yes
Forced : No

Text #1
ID : 3
Format : ASS
Codec ID : S_TEXT/ASS
Codec ID/Info : Advanced Sub Station Alpha
Compression mode : Lossless
Title : Styled
Language : English
Default : Yes
Forced : No

Text #2
ID : 4
Format : UTF-8
Codec ID : S_TEXT/UTF8
Codec ID/Info : UTF-8 Plain Text
Title : Unstyled
Language : English
Default : No
Forced : No

Menu
00:00:00.000 : en:00:00:00.000
00:10:02.393 : en:00:10:02.393
00:20:02.910 : en:00:20:02.910
00:30:02.843 : en:00:30:02.843
00:40:03.860 : en:00:40:03.860

File Name Size
Sanctuary.S01B01.Welcome.To.The.Sanctuary.720p.BluRay.DD2.0.x264 CtrlHD.mkv 219.11 MB
Sanctuary.S01B02.Sanctuary.Residents.720p.BluRay.DD2.0.x264 CtrlHD.mkv 249.29 MB
Sanctuary.S01B03.Sanctuary.Visual.Effects.720p.BluRay.DD2.0.x264 CtrlHD.mkv 202.29 MB
Sanctuary.S01B04.Bloopers.720p.BluRay.DD2.0.x264 CtrlHD.mkv 144.49 MB
Sanctuary.S01E01.Sanctuary.For.All.Part.1.720p.BluRay.DTS5.1.x264 CtrlHD.mkv 1.91 GB
Sanctuary.S01E02.Sanctuary.For.All.Part.2.720p.BluRay.DTS5.1.x264 CtrlHD.mkv 1.80 GB
Sanctuary.S01E03.Fata.Morgana.720p.BluRay.DTS5.1.x264 CtrlHD.mkv 2.04 GB
Sanctuary.S01E04.Folding.Man.720p.BluRay.DTS5.1.x264 CtrlHD.mkv 1.76 GB
Sanctuary.S01E05.Kush.720p.BluRay.DTS5.1.x264 CtrlHD.mkv 2.44 GB
Sanctuary.S01E06.Nubbins.720p.BluRay.DTS5.1.x264 CtrlHD.mkv 2.01 GB
Sanctuary.S01E07.The.Five.720p.BluRay.DTS5.1.x264 CtrlHD.mkv 2.22 GB
Sanctuary.S01E08.Edward.720p.BluRay.DTS5.1.x264 CtrlHD.mkv 1.95 GB
Sanctuary.S01E09.Requiem.720p.BluRay.DTS5.1.x264 CtrlHD.mkv 2.06 GB
Sanctuary.S01E10.Warriors.720p.BluRay.DTS5.1.x264 CtrlHD.mkv 2.19 GB
Sanctuary.S01E11.Instinct.720p.BluRay.DTS5.1.x264 CtrlHD.mkv 2.37 GB
Sanctuary.S01E12.Revelations.Part.1.720p.BluRay.DTS5.1.x264 CtrlHD.mkv 1.82 GB
Sanctuary.S01E13.Revelations.Part.2.720p.BluRay.DTS5.1.x264 CtrlHD.mkv 1.93 GB

Sanctuary S02E01 End of Nights (1) 720p BluRay DTS5.1 x264 CtrlHD.mkv 1.77 GB
Sanctuary S02E02 End of Nights (2) 720p BluRay DTS5.1 x264 CtrlHD.mkv 1.80 GB
Sanctuary S02E03 Eulogy 720p BluRay DTS5.1 x264 CtrlHD.mkv 1.62 GB
Sanctuary S02E04 Hero 720p BluRay DTS5.1 x264 CtrlHD.mkv 1.60 GB
Sanctuary S02E05 Pavor Nocturnus 720p BluRay DTS5.1 x264 CtrlHD.mkv 1.53 GB
Sanctuary S02E06 Fragments 720p BluRay DTS5.1 x264 CtrlHD.mkv 1.51 GB
Sanctuary S02E07 Veritas 720p BluRay DTS5.1 x264 CtrlHD.mkv 1.40 GB
Sanctuary S02E08 Next Tuesday 720p BluRay DTS5.1 x264 CtrlHD.mkv 2.36 GB
Sanctuary S02E09 Penance 720p BluRay DTS5.1 x264 CtrlHD.mkv 1.33 GB
Sanctuary S02E10 Sleepers 720p BluRay DTS5.1 x264 CtrlHD.mkv 1.46 GB
Sanctuary S02E11 Haunted 720p BluRay DTS5.1 x264 CtrlHD.mkv 1.41 GB
Sanctuary S02E12 Kali (1) 720p BluRay DTS5.1 x264 CtrlHD.mkv 1.43 GB
Sanctuary S02E13 Kali (2) 720p BluRay DTS5.1 x264 CtrlHD.mkv 1.58 GB
Screenshot:

Sign up via clicking banner and a file link to creat a premium account.Then Get the access to protected links.

ExtMatrix Download Links

Sanctuary.S01E01.Sanctuary.For.All.Part.1.720p.BluRay.DTS5.1.x264-CtrlHD.mkv

Click Here for downloading links Sanctuary S01 S02 720p BluRay DTS5.1 x264 CtrlHD