External Links:

Scrubs: Season One

Series Info

Comedy
Scrubs is an Emmy and Peabody Award-winning American comedy-drama created by Bill Lawrence. The show focuses on the lives of several people working at Sacred Heart, a teaching hospital. It features fast-paced dialogue, slapstick, and surreal vignettes presented mostly as the daydreams of the central character, Dr. John Michael “J.D.” Dorian.

Encode Info

Source…………: Scrubs S01 NTSC DVD9
Duration……….: 24 x 20 minutes
Episode Size……: ~320 MB
Container………: Matroska
Video………….: 704×480, 23.976 fps, SAR 10:11, MPEG-4 AVC L3.1
Video Type……..: Film, soft telecined; IVTC with tfm(order=1).tdecimate(hybrid=1)
Video Bitrate…..: 1.800 kbps VBR
Display Resolution: 704×530 (1,33:1)
Encoder………..: x264_x86_r977_techouse
Audio………….: English AC3 2ch 192 kbps CBR 48 KHz
Commentry………: None
Subtitles………: None
Chapters……….: None

———————————————————-

Scrubs: Season Two

Series Info

Comedy
Scrubs is an Emmy and Peabody Award-winning American comedy-drama created by Bill Lawrence. The show focuses on the lives of several people working at Sacred Heart, a teaching hospital. It features fast-paced dialogue, slapstick, and surreal vignettes presented mostly as the daydreams of the central character, Dr. John Michael “J.D.” Dorian.
Encode Info

Source…………: Scrubs S02 NTSC
Duration……….: 22 x 20 minutes
Video………….: 704×480, 23.976 fps, SAR 10:11, MPEG-4 AVC L3.1
Display Resolution: 704×530 (1,33:1)
Video Bitrate…..: 1700 kbps VBR
Episode Size……: 320 MB
Video Type……..: Film, tfm().tdecimate()
Encoder………..: x264_x86_r967_techouse (Repack ep 9,10,13: x264 core 67 r1128M)
Audio………….: English AC3 5.1 384 kbps CBR 48 KHz

————————————————————

General
Complete name : Scrubs S03E01 DVDRip x264 AC3-ss.mkv
Format : Matroska
File size : 350 MiB
Duration : 20mn 58s
Overall bit rate : 2 333 Kbps

Video
ID : 1
Format : AVC
Format/Info : Advanced Video Codec
Format profile : High@L4.1
Format settings, CABAC : Yes
Format settings, ReFrames : 5 frames
Muxing mode : Container profile=Unknown@4.1
Codec ID : V_MPEG4/ISO/AVC
Duration : 20mn 57s
Bit rate : 1 903 Kbps
Nominal bit rate : 1 945 Kbps
Width : 720 pixels
Height : 480 pixels
Display aspect ratio : 4:3
Original display aspect ratio : 1.500
Frame rate : 23.976 fps
Standard : NTSC
Resolution : 8 bits
Colorimetry : 4:2:0
Scan type : Progressive
Bits/(Pixel*Frame) : 0.230
Stream size : 285 MiB (81%)
Writing library : x264 core 59 r806 457ce6a
Encoding settings : cabac=1 / ref=5 / deblock=1:-2:-1 / analyse=0x3:0x113 / me=umh / subme=6 /
Audio
ID : 2
Format : AC-3
Format/Info : Audio Coding 3
Codec ID : A_AC3
Duration : 20mn 58s
Bit rate mode : Constant
Bit rate : 384 Kbps
Channel(s) : 6 channels
Channel positions : Front: L C R, Surround: L R, LFE
Sampling rate : 48.0 KHz
Stream size : 57.6 MiB (16%)
Language : English

————————————————————

Scrubs: Season Four

Series Info

Comedy
Scrubs is an Emmy and Peabody Award-winning American comedy-drama created by Bill Lawrence. The show focuses on the lives of several people working at Sacred Heart, a teaching hospital. It features fast-paced dialogue, slapstick, and surreal vignettes presented mostly as the daydreams of the central character, Dr. John Michael “J.D.” Dorian.

Encode Info

Source…………: Scrubs S04 NTSC DVD9
Duration……….: 25 x 20 minutes
Episode Size……: ~320 MB
Container………: Matroska
Video………….: 704×480, 23.976 fps, SAR 10:11, MPEG-4 AVC L3.1
Video Type……..: Film, soft telecined; IVTC with tfm().tdecimate()
Video Bitrate…..: 1.700 kbps VBR
Display Resolution: 704×530 (1,33:1)
Encoder………..: x264_x86_r977_techouse
Audio………….: English AC3 5.1ch 384 kbps CBR 48 KHz
Commentry………: None
Subtitles………: None
Chapters……….: Yes

————————————————————

Scrubs: Season Five

Series Info

Comedy
Scrubs is an Emmy and Peabody Award-winning American comedy-drama created by Bill Lawrence. The show focuses on the lives of several people working at Sacred Heart, a teaching hospital. It features fast-paced dialogue, slapstick, and surreal vignettes presented mostly as the daydreams of the central character, Dr. John Michael “J.D.” Dorian.

Encode Info

   Source............: Scrubs S05 NTSC DVD
   Duration..........: 24 x 22 minutes
   Video.............: 712x476, 23.976 fps, SAR 10:11, MPEG-4 AVC L4.0
   Display Resolution: 712x524 (1.36:1)
   Video Bitrate.....: ~1800 kbps VBR
   Episode Size......: 350 MB
   Video Type........: Film, tfm().tdecimate()
   Encoder...........: x264 core 67 r1128M
   Audio.............: English AC3 5.1 384 kbps CBR 48 KHz

————————————————————

Scrubs: Season Six

Series Info

Comedy
Scrubs is an Emmy and Peabody Award-winning American comedy-drama created by Bill Lawrence. The show focuses on the lives of several people working at Sacred Heart, a teaching hospital. It features fast-paced dialogue, slapstick, and surreal vignettes presented mostly as the daydreams of the central character, Dr. John Michael “J.D.” Dorian.

Encode Info

   Source............: Scrubs S06 NTSC DVD
   Duration..........: 19 x 22 minutes, 3 x 25 minutes
   Video.............: 720x480, 23.976 fps, SAR 10:11, MPEG-4 AVC L4.0
   Display Resolution: 655x480 (1.36:1)
   Video Bitrate.....: ~1550 kbps VBR
   Episode Size......: 300 MB (3x350MB)
   Video Type........: Film, tfm().tdecimate()
   Encoder...........: x264 core 66 r1114M
   Audio.............: English AC3 5.1 384 kbps CBR 48 KHz

————————————————————

File Name Size
Scrubs.S07E11.My.Princess.DVDRip.x264 Jason28.mkv 307.35 MB
Scrubs.S07E01.My.Own.Worst.Enemy.DVDRip.x264 Jason28.mkv 291.10 MB
Scrubs.S07E09.My.Dumb.Luck.DVDRip.x264 Jason28.mkv 291.09 MB
Scrubs.S07E07.My.Bad.Too.DVDRip.x264 Jason28.mkv 287.36 MB
Scrubs.S07E05.My.Growing.Pains.DVDRip.x264 Jason28.mkv 287.34 MB
Scrubs.S07E06.My.Number.One.Doctor.DVDRip.x264 Jason28.mkv 287.26 MB
Scrubs.S07E08.My.Manhood.DVDRip.x264 Jason28.mkv 287.25 MB
Scrubs.S07E04.My.Identity.Crisis.DVDRip.x264 Jason28.mkv 286.33 MB
Scrubs.S07E02.My.Hard.Labor.DVDRip.x264 Jason28.mkv 286.31 MB
Scrubs.S07E10.My.Waste.of.Time.DVDRip.x264 Jason28.mkv 282.17 MB
Scrubs.S07E03.My.Inconvenient.Truth.DVDRip.x264 Jason28.mkv 279.91 MB

Sign up via clicking banner and a file link to creat a premium account.Then Get the access to protected links.

ExtMatrix Download Links

Scrubs S01E01 DVDRip x264 AC3-ss.mkv
Scrubs S01E05 DVDRip x264 AC3-ss.mkv
Scrubs S01E09 DVDRip x264 AC3-ss.mkv
Scrubs S01E13 DVDRip x264 AC3-ss.mkv
Scrubs S03E05 DVDRip x264 AC3-ss.mkv
Scrubs - S06E06 - NTSC DVD x264 DD51-ss.mkv