External Links:

General
Complete name : Sherlock.S03E01.The.Empty.Hearse.1080p.WEB-DL.DD5.1.H.264-BS.mkv
Format : Matroska
Format version : Version 2
File size : 3.15 GiB
Duration : 1h 26mn
Overall bit rate : 5 217 Kbps

Video
ID : 1
Format : AVC
Format/Info : Advanced Video Codec
Format profile : High@L4.0
Format settings, CABAC : Yes
Format settings, ReFrames : 4 frames
Codec ID : V_MPEG4/ISO/AVC
Duration : 1h 26mn
Bit rate : 4 730 Kbps
Width : 1 912 pixels
Height : 1 072 pixels
Display aspect ratio : 16:9
Frame rate mode : Constant
Frame rate : 25.000 fps
Color space : YUV
Chroma subsampling : 4:2:0
Bit depth : 8 bits
Scan type : Progressive
Bits/(Pixel*Frame) : 0.092
Stream size : 2.86 GiB (91%)
Language : English
Default : Yes
Forced : No
Color primaries : BT.709
Transfer characteristics : BT.709
Matrix coefficients : BT.709

Audio
ID : 2
Format : AC-3
Format/Info : Audio Coding 3
Mode extension : CM (complete main)
Format settings, Endianness : Big
Codec ID : A_AC3
Duration : 1h 26mn
Bit rate mode : Constant
Bit rate : 384 Kbps
Channel(s) : 6 channels
Channel positions : Front: L C R, Side: L R, LFE
Sampling rate : 48.0 KHz
Bit depth : 16 bits
Compression mode : Lossy
Stream size : 238 MiB (7%)
Language : English
Default : Yes
Forced : No

Screenshot:

Sign up via clicking banner and a file link to creat a premium account.Then Get the access to protected links.

ExtMatrix Download Links

Sherlock.S03E01.The.Empty.Hearse.1080p.WEB-DL.DD5.1.H.264-BS.mkv
Sherlock.S03E01.The.Empty.Hearse.720p.WEB-DL.DD5.1.H.264-BS.mkv
Sherlock.S03E02.The.Sign.of.Three.720p.WEB-DL.DD5.1.H.264-BS.mkv
Sherlock.S03E02.The.Sign.of.Three.1080p.WEB-DL.DD5.1.H.264-BS.mkv
sherlock.3x03.his_last_vow.repack.720p_hdtv_x264-fov.mkv