Series Info
# of Seasons: 16
Country: US
Air Day: Wednesday
Air Time: 10:00 PM
First Aired: 1997-08-01
Rating: TV-MA
Series Status: Returning Series
Runtime: 30 Minutes
Network: Comedy Central
Classification: Animation
TVDB Rating: 9.2
External Links:

South Park (1997)

TV Series – TV_MA 30 min – tvAnimation | tvComedy
9.0

Your rating:

-/10
Ratings: 9.0/10 from 101,285 users
Reviews: 318 user | 147 critic

 

Follows the misadventures of four irreverent grade-schoolers in the quiet, dysfunctional town of South Park, Colorado.

General

Complete name : South.Park.S16E12.A.Nightmare.on.FaceTime.1080p.Blu-ray.DD5.1.×264-CtrlHD.mkv
Format : Matroska
Format version : Version 4 / Version 2
File size : 468 MiB
Duration : 22mn 24s
Overall bit rate : 2 917 Kbps

Video
ID : 1
Format : AVC
Format/Info : Advanced Video Codec
Format profile : High@L4.1
Format settings, CABAC : Yes
Format settings, ReFrames : 4 frames
Codec ID : V_MPEG4/ISO/AVC
Duration : 22mn 24s
Bit rate : 2 411 Kbps
Width : 1 920 pixels
Height : 1 080 pixels
Display aspect ratio : 16:9
Frame rate mode : Constant
Frame rate : 23.976 fps
Color space : YUV
Chroma subsampling : 4:2:0
Bit depth : 8 bits
Scan type : Progressive
Bits/(Pixel*Frame) : 0.048
Stream size : 386 MiB (83%)
Writing library : x264 core 138 r2358 9e941d1
Encoding settings : cabac=1 / ref=4 / deblock=1:-3:-3 / analyse=0x3:0x133 / me=umh / subme=11 /

Audio
ID : 2
Format : AC-3
Format/Info : Audio Coding 3
Mode extension : CM (complete main)
Format settings, Endianness : Big
Codec ID : A_AC3
Duration : 22mn 24s
Bit rate mode : Constant
Bit rate : 448 Kbps
Channel(s) : 6 channels
Channel positions : Front: L C R, Side: L R, LFE
Sampling rate : 48.0 KHz
Bit depth : 16 bits
Compression mode : Lossy
Stream size : 71.8 MiB (15%)
Title : DD5.1
Language : English
Default : Yes
Forced : No

Text
ID : 3
Format : PGS
Muxing mode : zlib
Codec ID : S_HDMV/PGS
Codec ID/Info : The same subtitle format used on BDs/HD-DVDs
Language : English
Default : Yes
Forced : No

Menu
00:00:00.000 : en:Chapter 01
00:00:33.658 : en:Chapter 02
00:09:43.749 : en:Chapter 03
00:16:02.127 : en:Chapter 04
00:21:50.726 : en:Chapter 05
00:22:23.467 : en:Chapter 06
00:22:24.217 : en:Chapter 07

South.Park.S16E01Reverse.Cowgirl.1080p.Blu ray.DD5.1.x264 CtrlHD.mkv 370.34 MB
South.Park.S16E02.Cash.for.Gold.1080p.Blu ray.DD5.1.x264 CtrlHD.mkv 439.84 MB
South.Park.S16E03.Faith.Hilling.1080p.Blu ray.DD5.1.x264 CtrlHD.mkv 554.00 MB
South.Park.S16E04.Jewpacabra.1080p.Blu ray.DD5.1.x264 CtrlHD.mkv 437.60 MB
South.Park.S16E05.Butterballs.1080p.Blu ray.DD5.1.x264 CtrlHD.mkv 440.76 MB
South.Park.S16E06.I.Should.Have.Never.Gone.Ziplining.1080p.Blu ray.DD5.1.x264 CtrlHD.mkv 1.13 GB
South.Park.S16E07.Cartman.Finds.Love.1080p.Blu ray.DD5.1.x264 CtrlHD.mkv 443.79 MB
South.Park.S16E08.Sarcastaball.1080p.Blu ray.DD5.1.x264 CtrlHD.mkv 428.58 MB
South.Park.S16E09.Raising.the.Bar.1080p.Blu ray.DD5.1.x264 CtrlHD.mkv 465.73 MB
South.Park.S16E10.Insecurity.1080p.Blu ray.DD5.1.x264 CtrlHD.mkv 439.73 MB
South.Park.S16E11.Going.Native.1080p.Blu ray.DD5.1.x264 CtrlHD.mkv 438.96 MB
South.Park.S16E12.A.Nightmare.on.FaceTime.1080p.Blu ray.DD5.1.x264 CtrlHD.mkv 467.52 MB
South.Park.S16E13.A.Scause.for.Applause.1080p.Blu ray.DD5.1.x264 CtrlHD.mkv 412.69 MB
South.Park.S16E14.Obama.Wins!.1080p.Blu ray.DD5.1.x264 CtrlHD.mkv 437.30 MB
Screenshot:

Sign up via clicking banner and a file link to creat a premium account.Then Get the access to protected links.

ExtMatrix Download Links

South.Park.S16E01Reverse.Cowgirl.1080p.Blu-ray.DD5.1.x264-CtrlHD.mkv
South.Park.S16E02.Cash.for.Gold.1080p.Blu-ray.DD5.1.x264-CtrlHD.mkv

Click Here for downloading links South Park S16 1080p Bluray DD5.1 x264 CtrlHD