Spirited.Away.2001.x264.DTS.AC3.HDTV.1080pSpirited.Away.2001.x264.DTS.AC3.HDTV.1080p

 Sen to Chihiro no kamikakushi (2001)

PG 125 min  –  Animation | Adventure | Family  -
8.6

Your rating:

   -/10
Ratings: 8.6/10 from 181,987 users   Metascore: 94/100
Reviews: 740 user | 190 critic | 37 from Metacritic.com

 

In the middle of her family’s move to the suburbs, a sullen 10-year-old girl wanders into a world ruled by gods, witches, and monsters; where humans are changed into animals; and a bathhouse for these creatures.

 

Director:

Hayao Miyazaki

Writer:

Hayao Miyazaki

Stars:

General
Complete name : Spirited.Away.2001.×264.DTS.AC3.HDTV.1080p.mkv
Format : Matroska
Format version : Version 2
File size : 12.0 GiB
Duration : 2h 4mn
Overall bit rate : 13.8 Mbps
Encoded date : UTC 2011-02-26 05:16:31
Writing application : mkvmerge v4.4.0 (‘Die Wiederkehr’) §ã§Ò§à§â§Ü§Ñ §à§ä Oct 31 2010 21:52:48
Writing library : libebml v1.0.0 + libmatroska v1.0.0 

Video #1
ID : 1
Format : AVC
Format/Info : Advanced Video Codec
Format profile : High@L4.1
Format settings, CABAC : Yes
Format settings, ReFrames : 4 frames
Muxing mode : Header stripping
Codec ID : V_MPEG4/ISO/AVC
Duration : 2h 4mn
Bit rate : 12.0 Mbps
Width : 1 920 pixels
Height : 1 040 pixels
Display aspect ratio : 16:9
Frame rate : 23.976 fps
Color space : YUV
Chroma subsampling : 4:2:0
Bit depth : 8 bits
Scan type : Progressive
Bits/(Pixel*Frame) : 0.251
Stream size : 10.2 GiB (85%)
Title : x.264 High@L4.1; 23.976fps; 12.0 Mbps; Rip by Tamerlan
Writing library : x264 core 92 r1510 33d382a
Encoding settings : cabac=1 / ref=4 / deblock=1:1:1 / analyse=0x3:0x133 / me=umh / subme=9 /
Language : Japanese

Audio #2
ID : 2
Format : DTS
Format/Info : Digital Theater Systems
Muxing mode : Header stripping
Codec ID : A_DTS
Duration : 2h 4mn
Bit rate mode : Constant
Bit rate : 755 Kbps
Channel(s) : 6 channels
Channel positions : Front: L C R, Side: L R, LFE
Sampling rate : 48.0 KHz
Bit depth : 24 bits
Compression mode : Lossy
Stream size : 672 MiB (5%)
Title : DTS; 5.1ch; 768kbps [CP Digital] Language : Russian

Audio #3
ID : 3
Format : AC-3
Format/Info : Audio Coding 3
Mode extension : CM (complete main)
Muxing mode : Header stripping
Codec ID : A_AC3
Duration : 2h 4mn
Bit rate mode : Constant
Bit rate : 320 Kbps
Channel(s) : 6 channels
Channel positions : Front: L C R, Side: L R, LFE
Sampling rate : 48.0 KHz
Bit depth : 16 bits
Compression mode : Lossy
Stream size : 285 MiB (2%)
Title : AC3; 5.1ch; 320kbps [Tolstobrov] Language : Russian

Audio #4
ID : 4
Format : DTS
Format/Info : Digital Theater Systems
Format profile : ES
Muxing mode : Header stripping
Codec ID : A_DTS
Duration : 2h 4mn
Bit rate mode : Constant
Bit rate : 755 Kbps
Channel(s) : 7 channels / 6 channels
Channel positions : Front: L C R, Side: L R, Back: C, LFE / Front: L C R, Side: L R, LFE
Sampling rate : 48.0 KHz
Bit depth : 24 bits
Compression mode : Lossy
Delay relative to video : 16ms
Stream size : 672 MiB (5%)
Title : DTS; 5.1ch; 768kbps [Jpn] Language : Japanese

Text #5
ID : 5
Format : ASS
Codec ID : S_TEXT/ASS
Codec ID/Info : Advanced Sub Station Alpha
Compression mode : Lossless
Title : Russian, ASS
Language : Russian

https://ptpimg.me/56zsqt.png

https://ptpimg.me/5731×7.png

https://ptpimg.me/yk51q0.png

Sign up via clicking banner and a file link to creat a premium account.
Spirited.Away.2001.x264.DTS.AC3.HDTV.1080p
ExtMatrix Download Links