Useful link:

MediaInfo:
General
Unique ID : 234081010551957711457281660319395273365 (0xB01A5CDE10A81D53B3E7052F49C4DA95)
Complete name : Spring.Breakers.1080p.WEB-DL.DD5.1.H.264-HKD.mkv
Format : Matroska
Format version : Version 4 / Version 2
File size : 3.24 GiB
Duration : 1h 34mn
Overall bit rate : 4 930 Kbps
Movie name : ripped by CrazyHDSource.com
Writing application : mkvmerge v6.0.0 (‘Coming Up For Air’) built on Jan 20 2013 09:52:00
Writing library : libebml v1.3.0 + libmatroska v1.4.0

Video
ID : 1
Format : AVC
Format/Info : Advanced Video Codec
Format profile : High@L4.0
Format settings, CABAC : Yes
Format settings, ReFrames : 5 frames
Codec ID : V_MPEG4/ISO/AVC
Duration : 1h 34mn
Bit rate : 4 448 Kbps
Width : 1 916 pixels
Height : 796 pixels
Display aspect ratio : 2.40:1
Frame rate mode : Constant
Frame rate : 23.976 fps
Color space : YUV
Chroma subsampling : 4:2:0
Bit depth : 8 bits
Scan type : Progressive
Bits/(Pixel*Frame) : 0.122
Stream size : 2.92 GiB (90%)
Title : ripped by CrazyHDSource.com
Language : English
Default : Yes
Forced : No
Color primaries : BT.709
Transfer characteristics : BT.709
Matrix coefficients : BT.709

Audio
ID : 2
Format : AC-3
Format/Info : Audio Coding 3
Mode extension : CM (complete main)
Format settings, Endianness : Big
Codec ID : A_AC3
Duration : 1h 34mn
Bit rate mode : Constant
Bit rate : 384 Kbps
Channel(s) : 6 channels
Channel positions : Front: L C R, Side: L R, LFE
Sampling rate : 48.0 KHz
Bit depth : 16 bits
Compression mode : Lossy
Stream size : 258 MiB (8%)
Language : English
Default : Yes
Forced : No

Text
ID : 3
Format : UTF-8
Codec ID : S_TEXT/UTF8
Codec ID/Info : UTF-8 Plain Text
Language : English
Default : No
Forced : No

Menu
00:00:00.000 : en:1
00:04:41.000 : en:2
00:10:06.000 : en:3
00:18:25.000 : en:4
00:23:13.000 : en:5
00:31:12.000 : en:6
00:37:20.000 : en:7
00:43:57.000 : en:8
00:45:59.000 : en:9
00:50:58.000 : en:10
00:55:10.000 : en:11
01:03:40.000 : en:12
01:10:45.000 : en:13
01:14:42.000 : en:14
01:18:25.000 : en:15
01:22:50.000 : en:16

Screenshot:

Sign up via clicking banner and a file link to creat a premium account.

ExtMatrix Download Links

BreakingItDown_US.mkv
DirtonaBeach_US.mkv
EarCandy_US_V2.mkv
RedneckRiviera_US.mkv
Spring.Breakers.1080p.WEB-DL.DD5.1.H.264-HKD.part1.rar
Spring Breakers - iTunes Extras menu.rar

Click Here for downloading links Spring Breakers 1080p WEB-DL DD5.1 H.264 HKD