Studio Sex 2012 720p BluRay DTS x264-EbP
Studio Sex 2012 720p BluRay DTS x264-EbP

 Studio Sex (Video 2012)

89 min  –  Crime | Drama
5.2

Your rating:

   -/10
Ratings: 5.2/10 from 381 users
Reviews: write review | 3 critic

Writers:

Antonia Pyk (screenplay), Liza Marklund (novel)

Stars:

Annika Bengtzon Collection should be watched in this order:
RELEASE NAME..: Studio.Sex.2012.720p.BluRay.DTS.x264-EbP
RELEASE DATE..: 07/27/2012
RELEASE SIZE..: 4.13 GB
RUNTIME…….: 1h 29mn
VIDEO CODEC…: x264, 2pass, L4.1
FRAMERATE…..: 25.000 fps
BITRATE…….: 5 100 Kbps
RESOLUTION….: 1280 x 720
AUDIO ……..: DTS @ 6ch 1509 Kbps
SUBTITLES…..: Finnish,Norwegian, Swedish.
CHAPTERS……: Included
SOURCE……..: Studio Sex 2012 1080i NOR Blu-ray AVC DTS-HD MA 5.1
General
Complete name : Studio.Sex.2012.720p.BluRay.DTS.x264-EbP.mkv
Format : Matroska
Format version : Version 2
File size : 4.13 GiB
Duration : 1h 29mn
Overall bit rate : 6 606 Kbps
Encoded date : UTC 2012-07-27 06:54:56 

Video
ID : 1
Format : AVC
Duration : 1h 29mn
Bit rate : 5 100 Kbps
Width : 1 280 pixels
Height : 720 pixels
Display aspect ratio : 16:9
Frame rate : 25.000 fps
Color space : YUV
Chroma subsampling : 4:2:0
Bit depth : 8 bits
Scan type : Progressive
Bits/(Pixel*Frame) : 0.221
Stream size : 3.10 GiB (75%)
Title : Studio Sex 2012
Writing library : x264 core 125 r2208 d9d2288
Encoding settings : cabac=1 / ref=9 / deblock=1:-3:-3 / analyse=0x3:0x113 / me=tesa / subme=11 /

Audio
ID : 2
Format : DTS
Duration : 1h 29mn
Bit rate mode : Constant
Bit rate : 1 510 Kbps
Channel(s) : 6 channels
Channel positions : Front: L C R, Side: L R, LFE
Sampling rate : 48.0 KHz
Bit depth : 24 bits
Compression mode : Lossy
Stream size : 967 MiB (23%)
Title : DTS @ 6ch 1510 Kbps
Language : Swedish
Default : Yes
Forced : No

Text #1
ID : 3
Format : UTF-8
Codec ID : S_TEXT/UTF8
Codec ID/Info : UTF-8 Plain Text
Language : Finnish
Default : Yes
Forced : No

Text #2
ID : 4
Format : UTF-8
Codec ID : S_TEXT/UTF8
Codec ID/Info : UTF-8 Plain Text
Language : Norwegian
Default : No
Forced : No

Text #3
ID : 5
Format : UTF-8
Codec ID : S_TEXT/UTF8
Codec ID/Info : UTF-8 Plain Text
Language : Swedish
Default : No
Forced : No

Text #4
ID : 6
Format : UTF-8
Codec ID : S_TEXT/UTF8
Codec ID/Info : UTF-8 Plain Text
Language : Swedish
Default : No
Forced : No

Menu
00:00:00.000 : en:00:00:00.000
00:10:00.400 : en:00:10:00.400
00:20:16.000 : en:00:20:16.000
00:30:01.000 : en:00:30:01.000
00:40:00.000 : en:00:40:00.000
00:50:00.000 : en:00:50:00.000
01:00:01.000 : en:01:00:01.000
01:10:01.040 : en:01:10:01.040
01:20:00.000 : en:01:20:00.000
01:27:53.000 : en:01:27:53.000

Screenshot:

Studio Sex 2012 720p BluRay DTS x264-EbP

 

Source-EbP

Sign up via clicking banner and a file link to creat a premium account.

ExtMatrix Download Links

Studio.Sex.2012.720p.BluRay.DTS.x264-EbP.part2.ra